<?xml version="1.0" standalone="no"?>
<!DOCTYPE svg PUBLIC "-//W3C//DTD SVG 1.1//EN" "http://www.w3.org/Graphics/SVG/1.1/DTD/svg11.dtd" >
<svg>
<metadata>
Created by FontForge 20090622 at Thu Oct  1 09:13:10 2015
 By deploy user
Eakkung2322 Edition
</metadata>
<defs>
<font id="EakGiatUNI" horiz-adv-x="0" >
  <font-face 
    font-family="Eak Giat UNI"
    font-weight="400"
    font-stretch="normal"
    units-per-em="4096"
    panose-1="2 2 6 3 5 4 5 2 3 4"
    ascent="3276"
    descent="-820"
    x-height="1332"
    cap-height="1904"
    bbox="-2622 -1688 3416 3780"
    underline-thickness="102"
    underline-position="-154"
    unicode-range="U+0020-U+F71D"
  />
<missing-glyph horiz-adv-x="2048" 
d="M256 0v3780h1536v-3780h-1536zM512 256h1024v3268h-1024v-3268z" />
    <glyph glyph-name=".notdef" horiz-adv-x="2048" 
d="M256 0v3780h1536v-3780h-1536zM512 256h1024v3268h-1024v-3268z" />
    <glyph glyph-name=".null" 
 />
    <glyph glyph-name="nonmarkingreturn" horiz-adv-x="676" 
 />
    <glyph glyph-name="space" unicode=" " horiz-adv-x="676" 
 />
    <glyph glyph-name="exclam" unicode="!" horiz-adv-x="880" 
d="M552 532h-450l-82 1106h614zM594 430v-430l-532 -4v434h532z" />
    <glyph glyph-name="quotedbl" unicode="&#x22;" horiz-adv-x="1232" 
d="M418 1904v-332l-118 -326h-152l-120 326v332h390zM1040 1904v-332l-118 -326h-152l-118 326v332h388z" />
    <glyph glyph-name="numbersign" unicode="#" horiz-adv-x="2012" 
d="M1004 1904l-112 -532h284l106 532h294l-110 -532h226v-294h-274l-66 -328h262v-292h-332l-90 -458h-294l90 458h-284l-94 -458h-290l90 458h-254v292h316l68 328h-270v294h328l106 532h300zM766 750h286l74 328h-294z" />
    <glyph glyph-name="dollar" unicode="$" horiz-adv-x="2012" 
d="M1052 1150q320 -26 362 -32q160 -18 232 -58q218 -118 218 -466q0 -372 -230 -508q-174 -102 -582 -102v-234h-270v234q-426 0 -594 114q-208 140 -208 528h508q0 -168 66 -212q50 -34 228 -34h270q150 0 188 8q124 26 124 190q0 110 -56 146q-46 30 -256 42l-270 16
q-516 30 -640 132q-134 110 -134 422q0 378 206 498q150 88 568 88v208h270v-208q258 0 388 -34q358 -92 358 -552h-492q0 126 -68 162q-44 26 -186 26h-270q-150 0 -200 -28q-70 -38 -70 -160q0 -100 54 -132q26 -16 216 -32z" />
    <glyph glyph-name="percent" unicode="%" horiz-adv-x="1830" 
d="M954 1638h622l-946 -1638h-622zM290 1638q292 0 292 -364t-292 -364q-290 0 -290 364t290 364zM1294 730q146 0 224 -114q68 -98 68 -252q0 -364 -292 -364q-290 0 -290 364q0 366 290 366zM1180 364q0 -142 114 -142q116 0 116 142q0 144 -116 144q-114 0 -114 -144z
M176 1274q0 -144 114 -144q116 0 116 144t-116 144q-114 0 -114 -144z" />
    <glyph glyph-name="ampersand" unicode="&#x26;" horiz-adv-x="2162" 
d="M1598 156q-92 -114 -274 -150q-110 -22 -340 -22q-312 0 -476 34q-442 92 -442 572q0 496 376 496q-94 78 -127 142t-33 182q0 310 174 420q146 92 528 92q390 0 538 -88q186 -110 186 -434v-98h-484v38q0 174 -106 192q-46 8 -134 8q-110 0 -148 -28q-42 -34 -42 -140
q0 -94 112 -184l516 -418v250h442v-372q0 -94 -54 -186l230 -192l-246 -270zM712 864q-126 -10 -126 -190v-36q0 -172 100 -218q66 -30 298 -30h30q166 0 252 40z" />
    <glyph glyph-name="quotesingle" unicode="'" horiz-adv-x="614" 
d="M418 1904v-332l-118 -326h-152l-120 326v332h390z" />
    <glyph glyph-name="parenleft" unicode="(" horiz-adv-x="1000" 
d="M532 164q0 -184 222 -184v-226h-278q-244 0 -354 90q-122 100 -122 336v1278q0 236 122 336q110 90 354 90h278v-226q-222 0 -222 -184v-1310z" />
    <glyph glyph-name="parenright" unicode=")" horiz-adv-x="1000" 
d="M222 1474q0 184 -222 184v226h278q242 0 354 -92q122 -100 122 -334v-1278q0 -236 -122 -336q-110 -90 -354 -90h-278v226q222 0 222 184v1310z" />
    <glyph glyph-name="asterisk" unicode="*" horiz-adv-x="2012" 
d="M1146 1332l210 -272l-206 -142l-212 286l-238 -282l-212 138l216 276l-352 118l90 222l348 -116v344h262v-344l362 116l82 -242z" />
    <glyph glyph-name="plus" unicode="+" horiz-adv-x="1598" 
d="M840 984h512v-328h-512v-512h-328v512h-512v328h512v512h328v-512z" />
    <glyph glyph-name="comma" unicode="," horiz-adv-x="778" 
d="M532 446v-544q0 -122 -140 -160q-102 -28 -392 -28v180q230 0 230 78q0 28 -38 28h-192v446h532z" />
    <glyph glyph-name="hyphen" unicode="-" horiz-adv-x="1598" 
d="M0 696v246h1352v-246h-1352z" />
    <glyph glyph-name="hyphen" unicode="&#x2010;" horiz-adv-x="1598" 
d="M0 696v246h1352v-246h-1352z" />
    <glyph glyph-name="period" unicode="." horiz-adv-x="778" 
d="M0 472h532v-472h-532v472z" />
    <glyph glyph-name="slash" unicode="/" horiz-adv-x="1748" 
d="M970 1638h534l-972 -1638h-532z" />
    <glyph glyph-name="zero" unicode="0" horiz-adv-x="2130" 
d="M1926 410q0 -410 -452 -410h-982q-452 0 -452 410v818q0 410 452 410h982q452 0 452 -410v-818zM1392 1200q0 172 -172 172h-474q-172 0 -172 -172v-762q0 -172 184 -172h450q184 0 184 172v762z" />
    <glyph glyph-name="one" unicode="1" horiz-adv-x="2130" 
d="M946 1360q-32 0 -70 -28l-286 -206l-180 238l380 274h730v-1638h-532v1298q0 62 -42 62z" />
    <glyph glyph-name="two" unicode="2" horiz-adv-x="2130" 
d="M586 286h1330v-286h-1862v562q0 392 454 392h692q172 0 172 144v102q0 90 -38 121t-134 31h-462q-172 0 -172 -152v-110h-512v156q0 392 454 392h958q430 0 430 -410v-150q0 -224 -118 -314q-104 -80 -336 -80h-664q-192 0 -192 -152v-246z" />
    <glyph glyph-name="three" unicode="3" horiz-adv-x="2130" 
d="M1904 348q0 -348 -450 -348h-970q-434 0 -434 394v138h532v-114q0 -152 172 -152h446q172 0 172 152v122q0 88 -39 116t-133 28h-488v286h488q172 0 172 144v106q0 152 -172 152h-446q-172 0 -172 -152v-126h-532v176q0 368 408 368h1038q408 0 408 -368v-160
q0 -128 -100 -218q-34 -32 -100 -64q66 -32 100 -64q100 -90 100 -220v-196z" />
    <glyph glyph-name="four" unicode="4" horiz-adv-x="2130" 
d="M1814 0h-532v356h-1376v340l978 942h930v-1000h246v-286h-246v-352zM1282 1286q0 86 -62 86q-40 0 -122 -82l-652 -652h836v648z" />
    <glyph glyph-name="five" unicode="5" horiz-adv-x="2130" 
d="M1224 266q172 0 172 144v254q0 90 -38 121t-134 31h-556q-124 0 -124 -112v-48h-532v982h1926v-266h-1394v-376q48 40 84 58q72 36 158 36h750q414 0 414 -402v-294q0 -394 -454 -394h-1070q-414 0 -414 394v110h532v-94q0 -144 172 -144h508z" />
    <glyph glyph-name="six" unicode="6" horiz-adv-x="2130" 
d="M1462 1086q234 0 338 -86q112 -94 112 -320v-270q0 -224 -114 -320q-106 -90 -336 -90h-958q-450 0 -450 410v832q0 396 438 396h966q454 0 454 -372v-78h-532v32q0 90 -38 121t-134 31h-450q-172 0 -172 -152v-224q48 42 72 56q58 34 116 34h688zM1380 664q0 90 -38 121
t-134 31h-450q-172 0 -172 -152v-226q0 -90 38 -121t134 -31h450q172 0 172 152v226z" />
    <glyph glyph-name="seven" unicode="7" horiz-adv-x="2130" 
d="M32 1372v266h1906v-282l-882 -1356h-630l884 1372h-1278z" />
    <glyph glyph-name="eight" unicode="8" horiz-adv-x="2130" 
d="M36 570q0 140 116 226q38 28 118 60q-78 30 -116 58q-118 88 -118 228v132q0 364 430 364h1034q430 0 430 -364v-132q0 -140 -116 -226q-38 -28 -118 -60q78 -30 116 -58q118 -88 118 -228v-214q0 -356 -452 -356h-990q-452 0 -452 356v214zM1396 552q0 164 -192 164
h-442q-192 0 -192 -164v-122q0 -164 192 -164h442q192 0 192 164v122zM1396 1208q0 164 -192 164h-442q-192 0 -192 -164v-48q0 -164 192 -164h442q192 0 192 164v48z" />
    <glyph glyph-name="nine" unicode="9" horiz-adv-x="2130" 
d="M1478 1638q230 0 334 -78q118 -90 118 -310v-860q0 -222 -118 -312q-104 -78 -334 -78h-1016q-430 0 -430 372v70h534q0 -176 172 -176h474q184 0 184 172v210q-20 -18 -60 -48q-74 -48 -156 -48h-696q-232 0 -334 78q-118 90 -118 312v308q0 222 118 310q104 78 334 78
h994zM738 1372q-172 0 -172 -152v-246q0 -90 42 -122q36 -28 130 -28h486q172 0 172 180v216q0 90 -38 121t-134 31h-486z" />
    <glyph glyph-name="colon" unicode=":" horiz-adv-x="778" 
d="M0 472h532v-472h-532v472zM0 1638h532v-470h-532v470z" />
    <glyph glyph-name="semicolon" unicode=";" horiz-adv-x="778" 
d="M0 1638h532v-470h-532v470zM532 446v-544q0 -122 -140 -160q-102 -28 -392 -28v180q230 0 230 78q0 28 -38 28h-192v446h532z" />
    <glyph glyph-name="less" unicode="&#x3c;" horiz-adv-x="1676" 
d="M1454 1008l-946 -304l946 -306v-324l-1396 478v304l1396 476v-324z" />
    <glyph glyph-name="equal" unicode="=" horiz-adv-x="1598" 
d="M0 942v246h1352v-246h-1352zM0 450v246h1352v-246h-1352z" />
    <glyph glyph-name="greater" unicode="&#x3e;" horiz-adv-x="1676" 
d="M1454 856v-304l-1396 -478v324l946 302l-946 308v324z" />
    <glyph glyph-name="question" unicode="?" horiz-adv-x="1778" 
d="M1000 1220q0 152 -194 152h-102q-192 0 -192 -152v-114h-512v140q0 392 454 392h644q226 0 326 -82q108 -90 108 -310q0 -162 -134 -242l-250 -106q-136 -62 -136 -206v-118h-512v172q0 194 128 266q20 10 242 70q130 34 130 138zM458 0v480h594v-480h-594z" />
    <glyph glyph-name="at" unicode="@" horiz-adv-x="2122" 
d="M1336 1414h266l-140 -742q-6 -28 -6 -52q-2 -38 44 -38q128 0 206 176q64 142 64 286q0 314 -224 488q-204 160 -526 160q-336 0 -554 -204q-224 -208 -224 -542q0 -344 244 -546q226 -188 578 -188q294 0 538 174h274q-310 -402 -832 -402q-440 0 -750 258
q-330 272 -330 704q0 428 324 708q308 268 744 268q356 0 648 -214q318 -234 318 -578q0 -290 -202 -512q-206 -228 -494 -228q-164 0 -164 126l-4 4q-118 -118 -270 -118q-188 0 -327 132t-139 318q0 242 162 412t402 170q222 0 348 -148zM946 668q120 0 201 81t81 201
q0 218 -224 218q-110 0 -192 -83t-82 -193q0 -224 216 -224z" />
    <glyph glyph-name="A" unicode="A" horiz-adv-x="2044" 
d="M566 328l-100 -328h-580l626 1904h852l634 -1904h-572l-108 328h-752zM950 1524l-262 -828h520z" />
    <glyph glyph-name="B" unicode="B" horiz-adv-x="2064" 
d="M86 1904h1098q346 0 488 -86q176 -106 176 -400q0 -204 -64 -300q-74 -110 -268 -140v-20q368 0 368 -426q0 -330 -176 -442q-140 -90 -512 -90h-1110v1904zM644 1142h400q138 0 180 26q62 36 62 160q0 98 -36 128t-140 30h-466v-344zM644 418h420q134 0 186 30
q74 40 74 162q0 118 -66 154q-46 26 -180 26h-434v-372z" />
    <glyph glyph-name="C" unicode="C" horiz-adv-x="2032" 
d="M1860 720v-56q0 -202 -24 -292q-42 -154 -168 -250q-118 -90 -314 -120q-114 -18 -350 -18q-350 0 -510 32q-268 54 -380 236q-98 160 -98 452v496q0 554 456 672q192 50 532 50q326 0 474 -34q220 -50 308 -214q70 -130 70 -380v-74h-574v74q-14 118 -106 156
q-68 28 -234 28q-230 0 -296 -78q-56 -66 -56 -282v-298q0 -236 50 -304q66 -90 302 -90q196 0 256 34q84 48 84 204v56h578z" />
    <glyph glyph-name="D" unicode="D" horiz-adv-x="2162" 
d="M62 1904h1064q428 0 622 -152q218 -170 218 -584v-402q0 -412 -176 -589t-590 -177h-1138v1904zM622 442h488q282 0 282 324v402q0 166 -59 230t-223 64h-488v-1020z" />
    <glyph glyph-name="E" unicode="E" horiz-adv-x="1892" 
d="M656 1138h892v-352h-892v-368h970v-418h-1528v1904h1508v-418h-950v-348z" />
    <glyph glyph-name="F" unicode="F" horiz-adv-x="1720" 
d="M630 1114h856v-418h-856v-696h-560v1904h1486v-418h-926v-372z" />
    <glyph glyph-name="G" unicode="G" horiz-adv-x="2118" 
d="M1364 1314q0 128 -116 168q-64 22 -244 22q-284 0 -360 -94q-58 -72 -58 -324v-312q0 -238 98 -312q80 -60 320 -60q208 0 280 56q80 66 80 266h-390v354h956v-332q0 -496 -220 -646q-170 -116 -706 -116q-540 0 -746 128q-250 154 -250 592v492q0 562 462 678
q190 48 534 48q350 0 480 -22q246 -42 350 -190q96 -136 96 -396h-566z" />
    <glyph glyph-name="H" unicode="H" horiz-adv-x="2204" 
d="M1942 0h-562v746h-724v-746h-558v1904h558v-716h724v716h562v-1904z" />
    <glyph glyph-name="I" unicode="I" horiz-adv-x="906" 
d="M648 0h-558v1904h558v-1904z" />
    <glyph glyph-name="J" unicode="J" horiz-adv-x="1680" 
d="M1438 1904v-1318q0 -374 -158 -492q-146 -110 -600 -110q-418 0 -552 118q-148 128 -148 536v160h528v-160q0 -118 28 -160q34 -52 144 -52q114 0 150 24q46 30 46 136v1318h562z" />
    <glyph glyph-name="K" unicode="K" horiz-adv-x="2102" 
d="M656 1188h168l540 716h676l-738 -934l796 -970h-694l-580 746h-168v-746h-558v1904h558v-716z" />
    <glyph glyph-name="L" unicode="L" horiz-adv-x="1634" 
d="M638 442h874v-442h-1430v1904h556v-1462z" />
    <glyph glyph-name="M" unicode="M" horiz-adv-x="2928" 
d="M648 0h-558v1904h880l402 -1196h20l382 1196h904v-1904h-556l58 1458h-22l-532 -1458h-484l-536 1458h-16z" />
    <glyph glyph-name="N" unicode="N" horiz-adv-x="2434" 
d="M648 0h-558v1904h942l602 -1462h24l-36 1462h558v-1904h-952l-594 1462h-24z" />
    <glyph glyph-name="O" unicode="O" horiz-adv-x="2122" 
d="M8 684v536q0 408 274 570q222 132 702 132q472 0 692 -130q274 -162 274 -572v-536q0 -408 -272 -570q-220 -130 -694 -130q-482 0 -702 130q-274 162 -274 570zM1372 738v430q0 200 -86 260q-72 50 -302 50q-238 0 -310 -48q-88 -58 -88 -262v-430q0 -202 88 -262
q74 -50 310 -50q230 0 300 48q88 60 88 264z" />
    <glyph glyph-name="P" unicode="P" horiz-adv-x="1986" 
d="M82 0v1904h1052q380 0 547 -161t167 -539q0 -416 -148 -566t-566 -150h-496v-488h-556zM1020 930q170 0 214 52q40 46 40 222q0 154 -50 206t-204 52h-382v-532h382z" />
    <glyph glyph-name="Q" unicode="Q" horiz-adv-x="2224" 
d="M1754 148q-130 -102 -348 -140q-138 -24 -374 -24q-524 0 -732 144q-242 168 -242 626v396q0 450 246 622q214 150 728 150q510 0 724 -150q246 -172 246 -622v-474q0 -156 -44 -254l230 -144l-230 -282zM1426 766v312q0 254 -72 327t-326 73t-324 -73t-70 -327v-344
q0 -206 92 -264q70 -44 306 -44q166 0 246 28l-372 222l220 282z" />
    <glyph glyph-name="R" unicode="R" horiz-adv-x="2072" 
d="M74 1904h1082q384 0 540 -110q180 -128 180 -466q0 -286 -48 -380q-76 -150 -346 -206v-22q374 0 374 -334v-386h-558v266q0 238 -234 238h-430v-504h-560v1904zM1064 946q170 0 210 68q28 46 28 232q0 132 -51 174t-187 42h-430v-516h430z" />
    <glyph glyph-name="S" unicode="S" horiz-adv-x="1998" 
d="M1044 1160q498 -26 618 -112q156 -112 156 -438q0 -216 -30 -302q-112 -324 -878 -324q-330 0 -468 26q-240 44 -338 208q-84 138 -84 400h538q0 -142 72 -182q62 -34 280 -34q210 0 274 28q78 34 78 148q0 122 -48 150q-22 10 -252 26l-122 8q-176 4 -438 26
q-378 76 -378 552q0 472 412 552q154 30 474 30q290 0 424 -22q428 -70 428 -512v-82h-538q0 136 -72 172q-52 26 -242 26q-210 0 -276 -42q-48 -30 -48 -122q0 -106 58 -140q36 -22 168 -28z" />
    <glyph glyph-name="T" unicode="T" horiz-adv-x="1662" 
d="M1016 0h-558v1462h-536v442h1660v-442h-566v-1462z" />
    <glyph glyph-name="U" unicode="U" horiz-adv-x="2154" 
d="M1900 1904v-1270q0 -400 -254 -544q-188 -106 -626 -106q-592 0 -776 152q-150 124 -150 498v1270h558v-1260q0 -146 96 -188q68 -30 272 -30q194 0 252 36q72 46 72 206v1236h556z" />
    <glyph glyph-name="V" unicode="V" horiz-adv-x="1986" 
d="M1368 1904h582l-614 -1904h-870l-592 1904h568l450 -1466h18z" />
    <glyph glyph-name="W" unicode="W" horiz-adv-x="3080" 
d="M2462 1904h564l-462 -1904h-806l-288 1192h-20l-308 -1192h-798l-454 1904h568l304 -1466h20l394 1466h582l372 -1466h16z" />
    <glyph glyph-name="X" unicode="X" horiz-adv-x="2044" 
d="M1388 978l620 -978h-648l-414 734l-414 -734h-658l630 978l-590 926h652l380 -700l378 700h638z" />
    <glyph glyph-name="Y" unicode="Y" horiz-adv-x="1978" 
d="M1176 668v-668h-562v668l-740 1236h638l372 -732h22l384 732h652z" />
    <glyph glyph-name="Z" unicode="Z" horiz-adv-x="1844" 
d="M1692 1478l-1000 -1036h1000v-442h-1712v430l990 1032h-920v442h1642v-426z" />
    <glyph glyph-name="bracketleft" unicode="[" horiz-adv-x="1078" 
d="M832 1922v-418h-226v-1468h226v-416h-758v2302h758z" />
    <glyph glyph-name="backslash" unicode="\" horiz-adv-x="1790" 
d="M516 1904l984 -1904h-394l-980 1904h390z" />
    <glyph glyph-name="bracketright" unicode="]" horiz-adv-x="1078" 
d="M74 -380v416h234v1468h-234v418h758v-2302h-758z" />
    <glyph glyph-name="asciicircum" unicode="^" horiz-adv-x="1676" 
d="M58 634l532 1270h332l532 -1270h-364l-328 862h-12l-328 -862h-364z" />
    <glyph glyph-name="underscore" unicode="_" horiz-adv-x="1440" 
d="M0 -410v206h1438v-206h-1438z" />
    <glyph glyph-name="grave" unicode="`" horiz-adv-x="1126" 
d="M836 1614l-74 -156l-636 180l140 284z" />
    <glyph glyph-name="a" unicode="a" horiz-adv-x="1704" 
d="M1004 196h-16q-46 -212 -426 -212q-264 0 -382 72q-152 94 -152 342q0 422 534 422q160 0 232 -18q134 -34 168 -134h26v212q0 110 -32 148q-46 54 -190 54q-196 0 -196 -144h-480q0 276 208 360q124 50 468 50q402 0 534 -84q162 -102 162 -432v-832h-474zM512 410
q0 -94 76 -126q44 -18 136 -18q140 0 184 18q80 32 80 146q0 122 -264 122q-212 0 -212 -142z" />
    <glyph glyph-name="b" unicode="b" horiz-adv-x="1712" 
d="M552 1904v-762h26q90 206 406 206q300 0 428 -134t128 -436v-302q0 -492 -556 -492q-350 0 -422 246h-22l12 -230h-482v1904h482zM1056 668q0 194 -34 256q-48 88 -202 88q-174 0 -228 -86q-40 -64 -40 -258q0 -214 36 -270q50 -78 232 -78q162 0 208 98q28 60 28 250z
" />
    <glyph glyph-name="c" unicode="c" horiz-adv-x="1552" 
d="M1414 532q0 -352 -156 -456q-136 -92 -554 -92q-408 0 -554 138t-146 542q0 370 124 512q150 172 576 172q248 0 372 -28q338 -76 338 -488h-476q0 104 -40 142t-194 38q-152 0 -194 -104q-22 -56 -22 -244q0 -198 20 -246q38 -98 196 -98q144 0 189 37t45 175h476z" />
    <glyph glyph-name="d" unicode="d" horiz-adv-x="1708" 
d="M1478 0h-482l12 230h-20q-78 -246 -422 -246q-558 0 -558 492v302q0 304 128 437t430 133q318 0 404 -206h26v762h482v-1904zM738 320q172 0 222 88q36 62 36 256q0 218 -32 272q-46 76 -226 76q-170 0 -214 -74q-32 -54 -32 -274q0 -236 46 -294q40 -50 200 -50z" />
    <glyph glyph-name="e" unicode="e" horiz-adv-x="1606" 
d="M1438 442q0 -274 -202 -380q-150 -78 -516 -78q-404 0 -556 140q-160 146 -160 540q0 408 154 550q146 134 562 134q408 0 560 -136q158 -146 158 -548v-74h-958q0 -168 36 -226q50 -74 204 -74q128 0 176 24q66 32 66 128h476zM954 832q0 138 -60 180q-46 32 -182 32
q-130 0 -178 -40q-54 -44 -54 -172h474z" />
    <glyph glyph-name="f" unicode="f" horiz-adv-x="1098" 
d="M970 1012h-322v-1012h-484v1012h-192v320h192v130q0 310 258 398q132 44 532 44v-332q-40 14 -90 14q-152 0 -188 -40q-28 -30 -28 -166v-48h322v-320z" />
    <glyph glyph-name="g" unicode="g" horiz-adv-x="1716" 
d="M532 -118q0 -102 64 -134q40 -22 150 -22q152 0 196 34q54 40 54 182v276h-12q-86 -218 -402 -218q-356 0 -478 190q-88 136 -88 474q0 366 92 504q120 180 474 180q344 0 414 -250h16l-16 234h482v-1274q0 -388 -166 -526q-150 -122 -550 -122q-414 0 -538 76
q-150 92 -150 396h458zM996 664q0 196 -32 256q-50 92 -222 92q-180 0 -222 -86q-24 -48 -24 -262q0 -188 32 -244q46 -84 214 -84q164 0 214 78q40 62 40 250z" />
    <glyph glyph-name="h" unicode="h" horiz-adv-x="1728" 
d="M558 1086h20q88 262 438 262q470 0 470 -426v-922h-478v820q0 192 -196 192q-144 0 -202 -70q-52 -62 -52 -208v-734h-484v1904h484v-818z" />
    <glyph glyph-name="i" unicode="i" horiz-adv-x="716" 
d="M516 0h-476v1332h476v-1332zM516 1568h-476v336h476v-336z" />
    <glyph glyph-name="j" unicode="j" horiz-adv-x="676" 
d="M480 -16q0 -228 -126 -320q-108 -78 -346 -78q-80 0 -144 16v300q140 0 140 126v1304h476v-1348zM480 1568h-476v336h476v-336z" />
    <glyph glyph-name="k" unicode="k" horiz-adv-x="1654" 
d="M552 832h82l292 500h528l-414 -640l508 -692h-560l-354 540h-82v-540h-482v1904h482v-1072z" />
    <glyph glyph-name="l" unicode="l" horiz-adv-x="806" 
d="M562 0h-476v1904h476v-1904z" />
    <glyph glyph-name="m" unicode="m" horiz-adv-x="2596" 
d="M544 1332v-186h22q78 202 400 202q194 0 292 -44q138 -62 156 -218h24q28 262 406 262q512 0 512 -434v-914h-484v770q0 132 -24 174q-38 68 -168 68q-222 0 -222 -254v-758h-484v806q0 110 -26 150q-38 56 -154 56q-134 0 -183 -59t-49 -195v-758h-480v1332h462z" />
    <glyph glyph-name="n" unicode="n" horiz-adv-x="1728" 
d="M558 1332v-246h20q88 262 438 262q470 0 470 -426v-922h-478v820q0 192 -196 192q-144 0 -202 -70q-52 -62 -52 -208v-734h-484v1332h484z" />
    <glyph glyph-name="o" unicode="o" horiz-adv-x="1658" 
d="M1482 664q0 -422 -158 -558q-142 -122 -578 -122q-426 0 -574 126q-160 140 -160 554q0 424 156 560q142 124 578 124q442 0 582 -122q154 -132 154 -562zM496 664q0 -206 30 -258q46 -86 224 -86q174 0 220 88q30 54 30 256q0 204 -28 258q-46 90 -222 90
q-178 0 -224 -88q-30 -56 -30 -260z" />
    <glyph glyph-name="p" unicode="p" horiz-adv-x="1724" 
d="M70 1332h482l-12 -210h22q74 226 422 226q556 0 556 -488v-308q0 -302 -128 -435t-428 -133q-318 0 -406 216h-26v-778h-482v1910zM552 664q0 -152 14 -206q36 -138 224 -138q174 0 228 86q38 64 38 258q0 216 -36 272q-48 76 -230 76q-162 0 -210 -98q-28 -60 -28 -250z
" />
    <glyph glyph-name="q" unicode="q" horiz-adv-x="1728" 
d="M1008 -578v778h-20q-96 -216 -410 -216q-302 0 -430 133t-128 435v308q0 488 558 488q350 0 418 -226h20l-8 210h478v-1910h-478zM504 664q0 -152 14 -206q36 -138 224 -138q174 0 228 86q38 64 38 258q0 216 -36 272q-48 76 -230 76q-162 0 -210 -98q-28 -60 -28 -250z
" />
    <glyph glyph-name="r" unicode="r" horiz-adv-x="1400" 
d="M856 816q0 98 -14 134q-24 62 -112 62q-182 0 -182 -214v-798h-482v1332h470v-194h16q98 210 370 210q230 0 310 -154q54 -104 54 -338v-102h-430v62z" />
    <glyph glyph-name="s" unicode="s" horiz-adv-x="1614" 
d="M922 954q-10 72 -76 96q-38 14 -122 14q-176 0 -220 -22q-32 -16 -32 -84q0 -84 92 -106q36 -8 160 -8q412 0 548 -64q174 -82 174 -346q0 -266 -216 -370q-166 -80 -506 -80q-258 0 -354 14q-362 52 -362 420h480q0 -100 74 -132q46 -20 162 -20q150 0 168 4
q82 20 82 116q0 90 -62 114q-40 16 -188 16q-438 0 -586 94q-130 82 -130 304q0 360 350 416q112 18 366 18q190 0 288 -12q360 -44 360 -316v-66h-450z" />
    <glyph glyph-name="t" unicode="t" horiz-adv-x="1356" 
d="M1172 1012h-558v-594q10 -114 110 -114q86 0 112 52q10 20 16 124l4 68h380v-118q0 -274 -138 -370q-110 -76 -402 -76q-274 0 -394 60q-166 84 -166 312v656h-176v320h176v282h478v-282h558v-320z" />
    <glyph glyph-name="u" unicode="u" horiz-adv-x="1716" 
d="M1004 0l12 258h-20q-94 -274 -438 -274q-496 0 -496 438v910h478v-796q0 -108 26 -152q38 -64 150 -64q272 0 272 192v820h478v-1332h-462z" />
    <glyph glyph-name="v" unicode="v" horiz-adv-x="1482" 
d="M1056 0h-748l-406 1332h500l266 -1042h12l242 1042h496z" />
    <glyph glyph-name="w" unicode="w" horiz-adv-x="2342" 
d="M1998 0h-688l-208 950h-16l-202 -950h-696l-266 1332h458l164 -1042h22l246 1042h556l246 -1042h20l168 1042h454z" />
    <glyph glyph-name="x" unicode="x" horiz-adv-x="1524" 
d="M1032 704l426 -704h-566l-208 438l-204 -438h-578l434 704l-376 628h556l168 -366l176 366h558z" />
    <glyph glyph-name="y" unicode="y" horiz-adv-x="1486" 
d="M1056 -118q-70 -272 -194 -370q-144 -110 -436 -102l-164 4v304l82 -4q134 -6 202 86q52 70 52 200h-266l-430 1332h500l290 -1082l246 1082h488z" />
    <glyph glyph-name="z" unicode="z" horiz-adv-x="1388" 
d="M1242 1332v-344l-706 -684h706v-304h-1266v360l696 668h-644v304h1214z" />
    <glyph glyph-name="braceleft" unicode="{" horiz-adv-x="1078" 
d="M-16 950q234 0 234 110v522q0 156 116 256q98 84 198 84h394v-336h-102q-88 0 -116 -40q-16 -24 -16 -92v-434q0 -210 -266 -238q112 -16 164 -48q102 -64 102 -218v-434q0 -128 132 -128h102v-334h-394q-100 0 -196 80q-118 98 -118 254v526q0 134 -234 134v336z" />
    <glyph glyph-name="bar" unicode="|" horiz-adv-x="1676" 
d="M918 0h-320v1904h320v-1904z" />
    <glyph glyph-name="braceright" unicode="}" horiz-adv-x="1078" 
d="M926 614q-92 0 -136 -14q-94 -30 -94 -120v-526q0 -156 -120 -254q-98 -80 -196 -80h-396v334h106q86 0 112 40q16 24 16 88v434q0 236 270 262q-270 38 -270 242v434q0 64 -16 90q-26 42 -112 42h-106v336h396q96 0 194 -82q122 -102 122 -258v-522q0 -110 230 -110
v-336z" />
    <glyph glyph-name="asciitilde" unicode="~" horiz-adv-x="1676" 
d="M1454 914q0 -208 -74 -346q-92 -178 -282 -178q-84 0 -206 72l-348 206q-82 48 -138 48q-58 0 -70 -116q-2 -18 -8 -104h-270q0 524 368 524q92 0 184 -58l312 -196q112 -70 168 -70q94 0 94 218h270z" />
    <glyph glyph-name="exclamdown" unicode="&#xa1;" horiz-adv-x="900" 
d="M452 1286q60 0 103 -43t43 -103t-43 -103t-103 -43q-61 0 -103.5 42.5t-42.5 103.5q0 146 146 146zM426 774h50l124 -1172q6 -75 -44 -134q-45 -52 -106 -52q-150 0 -150 202q0 27 1.5 39.5t6.5 48.5z" />
    <glyph glyph-name="cent" unicode="&#xa2;" horiz-adv-x="1352" 
d="M1188 460q-59 -243 -216 -384q-120 -108 -290 -108q-113 0 -214 46l-188 -514h-92l204 564q-105 96 -154 202q-68 147 -68 330q0 337 208 516q160 138 360 138q26 0 80 -6l186 506h94l-192 -530q132 -59 184 -116q62 -69 62 -150q0 -114 -124 -114q-72 0 -114 52
q-22 27 -34 108q0 36 -22 86l-300 -834q80 -52 124 -68q34 -12 90 -12q169 0 266 112q38 44 110 194zM488 330l294 812q-35 16 -78 16q-135 0 -214 -98q-108 -134 -108 -354q0 -105 22 -182q24 -83 84 -194z" />
    <glyph glyph-name="sterling" unicode="&#xa3;" horiz-adv-x="1352" 
d="M954 870h-340v-48q0 -22 2 -42q0 -109 -20 -230q-21 -124 -62 -242q119 -44 363 -104q30 -4 67 -4q113 0 178.5 50.5t99.5 161.5l48 -12q-22 -175 -112 -293q-105 -139 -268 -139q-91 0 -162 32q-75 34 -268 180q-51 -104 -114 -158t-132 -54q-154 0 -154 170
q0 89 60 148q64 62 158 58l50 -2l62 -8v30q0 14 2 30v20q0 9 2 22q0 101 -28 434h-256v126h256q-18 195 -18 262q0 347 244 499q114 71 244 71q128 0 225 -69q109 -77 109 -201q0 -45 -32.5 -76.5t-69.5 -31.5q-49 0 -84 50q-20 42 -20 102q0 152 -158 152
q-105 0 -173.5 -81.5t-68.5 -288.5q0 -79 16 -246l14 -142h340v-126zM394 228q-20 10 -57 26q-20 6 -55 10q-59 0 -94 -32q-32 -35 -32 -84q0 -46 24 -76q28 -28 62 -28q104 0 152 184z" />
    <glyph glyph-name="currency" unicode="&#xa4;" horiz-adv-x="1352" 
d="M1048 1346l188 186l78 -74l-190 -186q136 -175 136 -372q0 -199 -136 -374l190 -192l-78 -72l-188 188q-178 -136 -356 -136q-261 0 -390 136l-192 -188l-74 72l190 192q-134 152 -134 372q0 207 134 374l-190 186l74 74l192 -186q71 58 174.5 96t201.5 38q89 0 192 -34
q99 -32 178 -100zM676 1372q-200 0 -339 -139t-139 -339q0 -196 140 -335t336 -139q198 0 339 139t141 337q0 280 -241 414q-112 62 -237 62z" />
    <glyph glyph-name="yen" unicode="&#xa5;" horiz-adv-x="1352" 
d="M788 562h562v-98h-562v-142q0 -151 13 -184q8 -19 24 -36q10 -10 23 -18q46 -30 112 -30h54v-54h-680v54h42q156 0 182 110q4 30 4 158v142h-560v98h560v190l-20 46h-540v98h498l-280 654q-49 113 -98 151.5t-120 38.5v50h584v-50q-86 0 -128 -30q-32 -23 -32 -52
q0 -20 24 -78l282 -684l282 664q28 66 28 100q0 26 -28 54q-20 15 -84 22l-36 4v50h456v-50q-77 0 -114 -30q-58 -47 -114 -174l-282 -640h510v-98h-552l-10 -20v-216z" />
    <glyph glyph-name="brokenbar" unicode="&#xa6;" horiz-adv-x="542" 
d="M322 1878v-980h-110v980h110zM322 396v-980h-110v980h110z" />
    <glyph glyph-name="section" unicode="&#xa7;" horiz-adv-x="1352" 
d="M498 1112q-95 108 -128 180q-36 78 -36 162q0 156 109 265t265 109q132 0 229 -79q105 -84 105 -213q0 -53 -34 -90q-25 -28 -70 -28q-41 0 -74 30q-28 31 -28 72q0 24 11 74q5 26 5 52q0 126 -144 126q-96 0 -162 -67.5t-66 -164.5q0 -86 34 -140q57 -89 200 -194
q276 -202 364 -342q68 -108 68 -228q0 -119 -69 -238.5t-223 -213.5q89 -97 125.5 -174t36.5 -160q0 -161 -106.5 -269.5t-267.5 -108.5q-131 0 -228 81q-104 87 -104 215q0 48 30 84q34 34 74 34q98 0 98 -116q0 -10 -17 -115q-3 -18 -3 -29q0 -37 32 -62q52 -40 126 -40
q87 0 159.5 67.5t72.5 150.5q0 80 -42 146q-65 102 -228 224q-137 103 -208 172q-198 192 -198 382q0 118 72 238t220 208zM540 1072q-200 -120 -200 -294q0 -91 50 -170q67 -105 260 -252q82 -62 160 -132q202 119 202 290q0 86 -58.5 179t-237.5 233q-110 86 -176 146z
" />
    <glyph glyph-name="dieresis" unicode="&#xa8;" horiz-adv-x="900" 
d="M684 1766q56 0 99 -43t43 -101q0 -61 -42.5 -102.5t-99.5 -41.5q-59 0 -101.5 42.5t-42.5 101.5q0 58 43 101t101 43zM218 1766q60 0 102 -42t42 -102q0 -58 -42 -101t-100 -43q-60 0 -102 42t-42 102t40 100q44 44 102 44z" />
    <glyph glyph-name="copyright" unicode="&#xa9;" horiz-adv-x="2054" 
d="M1028 1832q237 0 461.5 -123t348.5 -345q126 -227 126 -468q0 -243 -124 -466.5t-345 -346.5t-467 -123q-244 0 -465.5 121.5t-346 347.5t-124.5 467q0 246 125 469.5t352.5 345t458.5 121.5zM1028 1750q-230 0 -429 -114.5t-311 -313.5q-116 -207 -116 -426
q0 -229 115 -430t313 -312q203 -114 428 -114q114 0 217 27q95 25 207 87q207 115 318 314q112 203 112 428q0 230 -115 431q-118 206 -317 313q-204 110 -422 110zM1490 1498l26 -370h-50q-48 158 -152 234t-248 76q-159 0 -270 -95q-86 -74 -128 -219q-26 -90 -26 -198
q0 -280 119 -413t317 -133q258 0 412 214l50 -26q-184 -268 -506 -268q-258 0 -433 164q-179 168 -179 424q0 250 186 430t472 180q90 0 244 -50q31 -10 48 -10q44 0 66 60h52z" />
    <glyph glyph-name="ordfeminine" unicode="&#xaa;" horiz-adv-x="746" 
d="M448 1558q0 139 -34 188q-38 44 -106 44q-91 0 -115 -65q-9 -23 -9 -53q0 -61 -22 -86q-17 -26 -54 -26q-74 0 -74 78q0 190 310 190q216 0 268 -126q20 -49 20 -144v-288q0 -94 16 -106q8 -8 18 -8q18 0 76 38v-62q-102 -73 -129 -85.5t-67 -12.5q-56 0 -80 64
q-10 24 -18 62q-115 -85 -222 -113q-35 -9 -60 -9q-67 0 -120.5 48.5t-53.5 115.5q0 56 30 102q41 63 140 124q22 14 105 52q80 37 181 78zM448 1508q-159 -52 -215.5 -115.5t-56.5 -128.5q0 -46 33 -79t85 -33q46 0 107 31q21 11 47 27v298z" />
    <glyph glyph-name="guillemotleft" unicode="&#xab;" horiz-adv-x="1352" 
d="M670 -10h-74l-512 622l512 622h74l-322 -622zM1268 -10h-78l-520 622l520 622h78l-322 -622z" />
    <glyph glyph-name="logicalnot" unicode="&#xac;" horiz-adv-x="1524" 
d="M48 1160h1426v-536h-106v428h-1320v108z" />
    <glyph glyph-name="registered" unicode="&#xae;" horiz-adv-x="2054" 
d="M1028 1832q237 0 461.5 -123t348.5 -345q126 -227 126 -468q0 -243 -124 -466.5t-345 -346.5t-467 -123q-244 0 -465.5 121.5t-346 347.5t-124.5 467q0 246 125 469.5t352.5 345t458.5 121.5zM1028 1750q-230 0 -429 -114.5t-311 -313.5q-116 -207 -116 -426
q0 -229 115 -430t313 -312q203 -114 428 -114q114 0 217 27q95 25 207 87q207 115 318 314q112 203 112 428q0 230 -115 431q-118 206 -317 313q-204 110 -422 110zM510 1470h510q190 0 291 -87t101 -209q0 -214 -294 -292l276 -394q50 -71 90 -96q32 -20 70 -20v-44h-244
l-388 536h-100v-408q18 -84 156 -84v-44h-484v44q65 0 90 14q24 18 38 46q10 20 10 122v690q0 92 -4 116q-8 29 -34 45q-31 19 -84 19v46zM822 920q258 0 338 115q38 55 38 125q0 112 -75.5 182t-188.5 70q-52 0 -112 -20v-472z" />
    <glyph glyph-name="degree" unicode="&#xb0;" horiz-adv-x="1082" 
d="M534 1830q171 0 289.5 -117.5t118.5 -288.5q0 -169 -119.5 -287.5t-288.5 -118.5t-286.5 118.5t-117.5 287.5t117.5 287.5t286.5 118.5zM534 1718q-124 0 -207 -84q-87 -87 -87 -210q0 -121 86.5 -207.5t207.5 -86.5q122 0 209 87t87 207q0 123 -86.5 208.5t-209.5 85.5z
" />
    <glyph glyph-name="plusminus" unicode="&#xb1;" horiz-adv-x="1484" 
d="M30 186v108h658v550h-658v110h658v656h106v-656h660v-110h-660v-550h660v-108h-1424z" />
    <glyph glyph-name="twosuperior" unicode="&#xb2;" horiz-adv-x="810" 
d="M760 1078l-82 -202h-652v38q328 257 434 414q66 97 66 188q0 79 -56 136q-53 54 -138 54q-153 0 -218 -154h-58q17 128 102 202t216 74q138 0 227 -77t89 -173q0 -90 -62 -186q-99 -154 -390 -388h246q118 0 150 16q40 15 66 58h60z" />
    <glyph glyph-name="threesuperior" unicode="&#xb3;" horiz-adv-x="810" 
d="M72 1622q48 99 108 144q82 62 196 62q96 0 173 -48q89 -55 89 -146q0 -89 -138 -206q93 -34 141.5 -97.5t48.5 -142.5q0 -166 -142 -256q-121 -76 -296 -76q-186 0 -194 84q0 60 78 60q30 0 106 -32t122 -32q71 0 124.5 51.5t53.5 122.5q0 56 -36 114q-34 55 -88 76
q-33 13 -78 23q-32 7 -64 7h-40v36q91 0 162 55q78 60 78 149q0 66 -43 107t-117 41q-111 0 -194 -116z" />
    <glyph glyph-name="acute" unicode="&#xb4;" horiz-adv-x="900" 
d="M746 1834l-390 -454h-44l138 454h296z" />
    <glyph glyph-name="paragraph" unicode="&#xb6;" horiz-adv-x="1226" 
d="M1054 1718v-2302h-96v2302h-246v-2302h-96v1378q-229 0 -378 66q-256 113 -256 436q0 213 144 348q155 146 450 146h654v-72h-176z" />
    <glyph glyph-name="cedilla" unicode="&#xb8;" horiz-adv-x="900" 
d="M476 22h80l-66 -106q164 -34 164 -192q0 -107 -91 -176q-83 -62 -193 -62q-48 0 -124 8v58q28 -6 64 -6q62 -1 111 42t49 104q0 39 -31 69t-75 27l-34 -2z" />
    <glyph glyph-name="onesuperior" unicode="&#xb9;" horiz-adv-x="810" 
d="M180 1712l270 116h46v-782q0 -68 8 -98q6 -13 22 -18q18 -12 104 -12v-42h-430v42q117 0 128 32q8 16 8 96v494q0 95 -8 124q-3 20 -14 28q-6 7 -24 10q-29 0 -90 -26z" />
    <glyph glyph-name="ordmasculine" unicode="&#xba;" horiz-adv-x="838" 
d="M428 1828q163 0 270.5 -112t107.5 -276t-116 -283t-280 -119q-155 0 -263.5 107.5t-108.5 274.5q0 182 109 295t281 113zM390 1770q-166 0 -166 -248q0 -210 92 -340q54 -76 134 -76q174 0 174 244q0 207 -94 338q-59 82 -140 82z" />
    <glyph glyph-name="guillemotright" unicode="&#xbb;" horiz-adv-x="1352" 
d="M682 1234h74l512 -624l-512 -620h-74l322 620zM84 1234h78l520 -624l-520 -620h-78l322 620z" />
    <glyph glyph-name="onequarter" unicode="&#xbc;" horiz-adv-x="2028" 
d="M176 1712l272 116h46v-782q0 -104 28 -116q21 -12 106 -12v-42h-430v42q80 0 107 10.5t27 117.5v534q0 53 -6 84q-4 21 -12.5 28t-27.5 10q-27 0 -88 -26zM1706 1828l-1234 -1900h-118l1234 1900h118zM1982 296v-108h-144v-240h-154v240h-452v98l496 614h110v-604h144z
M1684 296v416l-342 -416h342z" />
    <glyph glyph-name="onehalf" unicode="&#xbd;" horiz-adv-x="2028" 
d="M176 1712l272 116h46v-782q0 -104 28 -116q21 -12 106 -12v-42h-430v42q80 0 107 10.5t27 117.5v534q0 53 -6 84q-4 21 -12.5 28t-27.5 10q-27 0 -88 -26zM1674 1828l-1234 -1900h-118l1234 1900h118zM1972 150l-80 -202h-652v38q323 254 432 414q66 97 66 188
q0 82 -55 136t-137 54q-118 0 -180 -85q-21 -28 -38 -69h-60q40 276 320 276q116 0 210 -65q106 -73 106 -185q0 -86 -64 -186q-99 -154 -390 -388h248q169 0 214 74h60z" />
    <glyph glyph-name="threequarters" unicode="&#xbe;" horiz-adv-x="2028" 
d="M1686 1828l-1230 -1900h-118l1234 1900h114zM70 1622q47 98 106 144q37 29 92 47q49 15 106 15q97 0 172 -47q88 -55 88 -147q0 -89 -138 -206q192 -67 192 -240q0 -164 -143 -255q-121 -77 -295 -77q-109 0 -160 32q-34 22 -34 52q0 37 47 55q15 5 31 5q34 0 106 -32
t120 -32q72 0 126 51t54 123q0 220 -306 220v36q91 0 162 55q78 60 78 149q0 102 -94 138q-28 10 -66 10q-111 0 -194 -116zM1982 296v-108h-144v-240h-152v240h-454v98l496 614h110v-604h144zM1686 296v416l-344 -416h344z" />
    <glyph glyph-name="questiondown" unicode="&#xbf;" horiz-adv-x="1200" 
d="M596 1288q58 0 103 -43t45 -105q0 -60 -44 -103t-104 -43q-62 0 -104 42t-42 104t43 105t103 43zM582 826h52q0 -136 -34 -260q-17 -62 -44 -128q-22 -54 -90 -196q-108 -228 -108 -382q0 -158 75 -256q84 -108 237 -108q115 0 180.5 54.5t65.5 117.5q0 36 -41 111.5
t-41 114.5q0 45 31.5 75.5t76.5 30.5q55 0 100.5 -54.5t45.5 -145.5q0 -181 -155 -289q-137 -95 -325 -95q-198 0 -338 108q-152 117 -152 310q0 171 114 338l237 300q78 109 100 218q13 64 13 136z" />
    <glyph glyph-name="Agrave" unicode="&#xc0;" horiz-adv-x="1952" 
d="M566 328l-100 -328h-580l626 1904h852l634 -1904h-572l-108 328h-752zM950 1524l-262 -828h520zM1231 2154l-74 -156l-636 180l140 284z" />
    <glyph glyph-name="Aacute" unicode="&#xc1;" horiz-adv-x="1952" 
d="M566 328l-100 -328h-580l626 1904h852l634 -1904h-572l-108 328h-752zM950 1524l-262 -828h520zM1296 2374l-390 -454h-44l138 454h296z" />
    <glyph glyph-name="Acircumflex" unicode="&#xc2;" horiz-adv-x="1952" 
d="M566 328l-100 -328h-580l626 1904h852l634 -1904h-572l-108 328h-752zM950 1524l-262 -828h520zM828 2348h244l250 -436h-40l-360 280l-304 -280h-38z" />
    <glyph glyph-name="Atilde" unicode="&#xc3;" horiz-adv-x="1952" 
d="M566 328l-100 -328h-580l626 1904h852l634 -1904h-572l-108 328h-752zM950 1524l-262 -828h520zM572 1968h-42q0 178 74 262q71 80 174 80q98 0 265 -111q109 -73 163 -73q92 0 126 184h40q0 -239 -148 -320q-51 -28 -102 -28q-101 0 -258 106q-122 82 -170 82
q-53 0 -86 -48q-13 -24 -36 -134z" />
    <glyph glyph-name="Adieresis" unicode="&#xc4;" horiz-adv-x="1952" 
d="M566 328l-100 -328h-580l626 1904h852l634 -1904h-572l-108 328h-752zM950 1524l-262 -828h520zM1174 2246q56 0 99 -43t43 -101q0 -61 -42.5 -102.5t-99.5 -41.5q-59 0 -101.5 42.5t-42.5 101.5q0 58 43 101t101 43zM708 2246q60 0 102 -42t42 -102q0 -58 -42 -101
t-100 -43q-60 0 -102 42t-42 102t40 100q44 44 102 44z" />
    <glyph glyph-name="Aring" unicode="&#xc5;" horiz-adv-x="1952" 
d="M566 328l-100 -328h-580l626 1904h852l634 -1904h-572l-108 328h-752zM950 1524l-262 -828h520zM950 2420q106 0 180 -73t74 -179q0 -107 -74.5 -180.5t-179.5 -73.5t-178.5 74.5t-73.5 179.5t72.5 178.5t179.5 73.5zM950 2328q-68 0 -114 -46t-46 -114t46.5 -115
t113.5 -47q66 0 114 48t48 114q0 67 -47 113.5t-115 46.5z" />
    <glyph glyph-name="AE" unicode="&#xc6;" horiz-adv-x="2404" 
d="M1356 1692v-708h340q147 0 212 58q74 66 74 202h48v-620h-48q-15 109 -31 148q-29 68 -103 102q-30 14 -152 14h-340v-592q0 -126 10 -144q6 -19 38 -38q27 -16 104 -16h240q250 0 372 116q96 91 158 236h50l-142 -450h-1344v48h68q107 0 160 66q32 40 32 202v378h-522
l-164 -308q-92 -173 -92 -228q0 -91 206 -110v-48h-562v48q58 0 100 26q89 55 214 288l544 1018q102 191 102 254q0 42 -36 66q-51 42 -192 42v48h1466l20 -394h-44q-32 237 -170 284q-35 12 -180 12h-436zM1102 1692l-470 -902h470v902z" />
    <glyph glyph-name="Ccedilla" unicode="&#xc7;" horiz-adv-x="1803" 
d="M1860 720v-56q0 -202 -24 -292q-42 -154 -168 -250q-118 -90 -314 -120q-114 -18 -350 -18q-350 0 -510 32q-268 54 -380 236q-98 160 -98 452v496q0 554 456 672q192 50 532 50q326 0 474 -34q220 -50 308 -214q70 -130 70 -380v-74h-574v74q-14 118 -106 156
q-68 28 -234 28q-230 0 -296 -78q-56 -66 -56 -282v-298q0 -236 50 -304q66 -90 302 -90q196 0 256 34q84 48 84 204v56h578zM923 22h80l-66 -106q164 -34 164 -192q0 -107 -91 -176q-83 -62 -193 -62q-48 0 -124 8v58q28 -6 64 -6q62 -1 111 42t49 104q0 39 -31 69t-75 27
l-34 -2z" />
    <glyph glyph-name="Egrave" unicode="&#xc8;" horiz-adv-x="1651" 
d="M656 1138h892v-352h-892v-368h970v-418h-1528v1904h1508v-418h-950v-348zM1184 2154l-74 -156l-636 180l140 284z" />
    <glyph glyph-name="Eacute" unicode="&#xc9;" horiz-adv-x="1651" 
d="M656 1138h892v-352h-892v-368h970v-418h-1528v1904h1508v-418h-950v-348zM1174 2374l-390 -454h-44l138 454h296z" />
    <glyph glyph-name="Ecircumflex" unicode="&#xca;" horiz-adv-x="1651" 
d="M656 1138h892v-352h-892v-368h970v-418h-1528v1904h1508v-418h-950v-348zM716 2368h244l250 -436h-40l-360 280l-304 -280h-38z" />
    <glyph glyph-name="Edieresis" unicode="&#xcb;" horiz-adv-x="1651" 
d="M656 1138h892v-352h-892v-368h970v-418h-1528v1904h1508v-418h-950v-348zM1064 2216q56 0 99 -43t43 -101q0 -61 -42.5 -102.5t-99.5 -41.5q-59 0 -101.5 42.5t-42.5 101.5q0 58 43 101t101 43zM598 2216q60 0 102 -42t42 -102q0 -58 -42 -101t-100 -43q-60 0 -102 42
t-42 102t40 100q44 44 102 44z" />
    <glyph glyph-name="Igrave" unicode="&#xcc;" horiz-adv-x="900" 
d="M648 0h-558v1904h558v-1904zM756 2154l-74 -156l-636 180l140 284z" />
    <glyph glyph-name="Iacute" unicode="&#xcd;" horiz-adv-x="900" 
d="M648 0h-558v1904h558v-1904zM796 2374l-390 -454h-44l138 454h296z" />
    <glyph glyph-name="Icircumflex" unicode="&#xce;" horiz-adv-x="900" 
d="M648 0h-558v1904h558v-1904zM328 2368h244l250 -436h-40l-360 280l-304 -280h-38z" />
    <glyph glyph-name="Idieresis" unicode="&#xcf;" horiz-adv-x="900" 
d="M648 0h-558v1904h558v-1904zM683 2216q56 0 99 -43t43 -101q0 -61 -42.5 -102.5t-99.5 -41.5q-59 0 -101.5 42.5t-42.5 101.5q0 58 43 101t101 43zM217 2216q60 0 102 -42t42 -102q0 -58 -42 -101t-100 -43q-60 0 -102 42t-42 102t40 100q44 44 102 44z" />
    <glyph glyph-name="Eth" unicode="&#xd0;" horiz-adv-x="1952" 
d="M46 0v48h68q113 0 162 74q28 42 28 194v580h-258v96h258v482q0 167 -38 210q-51 58 -152 58h-68v48h728q348 0 536 -64q257 -87 409 -331q129 -209 129 -489q0 -443 -285 -683q-266 -223 -719 -223h-798zM558 132q168 -36 282 -36q303 0 505.5 213.5t202.5 584.5
q0 347 -183 565q-195 233 -535 233q-123 0 -272 -38v-662h520v-96h-520v-764z" />
    <glyph glyph-name="Ntilde" unicode="&#xd1;" horiz-adv-x="1952" 
d="M648 0h-558v1904h942l602 -1462h24l-36 1462h558v-1904h-952l-594 1462h-24zM612 1968h-42q0 178 74 262q71 80 174 80q98 0 265 -111q109 -73 163 -73q92 0 126 184h40q0 -239 -148 -320q-51 -28 -102 -28q-101 0 -258 106q-122 82 -170 82q-53 0 -86 -48
q-13 -24 -36 -134z" />
    <glyph glyph-name="Ograve" unicode="&#xd2;" horiz-adv-x="1952" 
d="M8 684v536q0 408 274 570q222 132 702 132q472 0 692 -130q274 -162 274 -572v-536q0 -408 -272 -570q-220 -130 -694 -130q-482 0 -702 130q-274 162 -274 570zM1372 738v430q0 200 -86 260q-72 50 -302 50q-238 0 -310 -48q-88 -58 -88 -262v-430q0 -202 88 -262
q74 -50 310 -50q230 0 300 48q88 60 88 264zM1296 2154l-74 -156l-636 180l140 284z" />
    <glyph glyph-name="Oacute" unicode="&#xd3;" horiz-adv-x="1952" 
d="M8 684v536q0 408 274 570q222 132 702 132q472 0 692 -130q274 -162 274 -572v-536q0 -408 -272 -570q-220 -130 -694 -130q-482 0 -702 130q-274 162 -274 570zM1372 738v430q0 200 -86 260q-72 50 -302 50q-238 0 -310 -48q-88 -58 -88 -262v-430q0 -202 88 -262
q74 -50 310 -50q230 0 300 48q88 60 88 264zM1286 2374l-390 -454h-44l138 454h296z" />
    <glyph glyph-name="Ocircumflex" unicode="&#xd4;" horiz-adv-x="1952" 
d="M8 684v536q0 408 274 570q222 132 702 132q472 0 692 -130q274 -162 274 -572v-536q0 -408 -272 -570q-220 -130 -694 -130q-482 0 -702 130q-274 162 -274 570zM1372 738v430q0 200 -86 260q-72 50 -302 50q-238 0 -310 -48q-88 -58 -88 -262v-430q0 -202 88 -262
q74 -50 310 -50q230 0 300 48q88 60 88 264zM848 2368h244l250 -436h-40l-360 280l-304 -280h-38z" />
    <glyph glyph-name="Otilde" unicode="&#xd5;" horiz-adv-x="1952" 
d="M8 684v536q0 408 274 570q222 132 702 132q472 0 692 -130q274 -162 274 -572v-536q0 -408 -272 -570q-220 -130 -694 -130q-482 0 -702 130q-274 162 -274 570zM1372 738v430q0 200 -86 260q-72 50 -302 50q-238 0 -310 -48q-88 -58 -88 -262v-430q0 -202 88 -262
q74 -50 310 -50q230 0 300 48q88 60 88 264zM592 1968h-42q0 178 74 262q71 80 174 80q98 0 265 -111q109 -73 163 -73q92 0 126 184h40q0 -239 -148 -320q-51 -28 -102 -28q-101 0 -258 106q-122 82 -170 82q-53 0 -86 -48q-13 -24 -36 -134z" />
    <glyph glyph-name="Odieresis" unicode="&#xd6;" horiz-adv-x="1952" 
d="M8 684v536q0 408 274 570q222 132 702 132q472 0 692 -130q274 -162 274 -572v-536q0 -408 -272 -570q-220 -130 -694 -130q-482 0 -702 130q-274 162 -274 570zM1372 738v430q0 200 -86 260q-72 50 -302 50q-238 0 -310 -48q-88 -58 -88 -262v-430q0 -202 88 -262
q74 -50 310 -50q230 0 300 48q88 60 88 264zM1204 2246q56 0 99 -43t43 -101q0 -61 -42.5 -102.5t-99.5 -41.5q-59 0 -101.5 42.5t-42.5 101.5q0 58 43 101t101 43zM738 2246q60 0 102 -42t42 -102q0 -58 -42 -101t-100 -43q-60 0 -102 42t-42 102t40 100q44 44 102 44z" />
    <glyph glyph-name="multiply" unicode="&#xd7;" horiz-adv-x="1524" 
d="M218 434l466 466l-464 464l76 76l464 -464l466 464l74 -74l-466 -466l468 -466l-76 -78l-466 468l-466 -466z" />
    <glyph glyph-name="Oslash" unicode="&#xd8;" horiz-adv-x="1952" 
d="M1514 1634l174 214l76 -58l-176 -220q138 -150 200 -302t62 -362q0 -452 -322 -732q-246 -214 -546 -214q-139 0 -285 47t-261 141l-170 -210l-78 62l174 216q-266 272 -266 698q0 379 250 646q256 272 632 272q299 0 536 -198zM1404 1498q-155 240 -432 240
q-120 0 -194 -30q-102 -41 -178 -126q-146 -162 -189 -464q-13 -93 -13 -198q0 -306 98 -538zM1454 1404l-904 -1118q72 -109 152 -158q121 -74 262 -74q136 0 226 42q84 39 163.5 126t136.5 248q54 153 54 396q0 162 -24 300q-17 98 -66 238z" />
    <glyph glyph-name="Ugrave" unicode="&#xd9;" horiz-adv-x="1952" 
d="M1900 1904v-1270q0 -400 -254 -544q-188 -106 -626 -106q-592 0 -776 152q-150 124 -150 498v1270h558v-1260q0 -146 96 -188q68 -30 272 -30q194 0 252 36q72 46 72 206v1236h556zM1320 2154l-74 -156l-636 180l140 284z" />
    <glyph glyph-name="Uacute" unicode="&#xda;" horiz-adv-x="1952" 
d="M1900 1904v-1270q0 -400 -254 -544q-188 -106 -626 -106q-592 0 -776 152q-150 124 -150 498v1270h558v-1260q0 -146 96 -188q68 -30 272 -30q194 0 252 36q72 46 72 206v1236h556zM1306 2374l-390 -454h-44l138 454h296z" />
    <glyph glyph-name="Ucircumflex" unicode="&#xdb;" horiz-adv-x="1952" 
d="M1900 1904v-1270q0 -400 -254 -544q-188 -106 -626 -106q-592 0 -776 152q-150 124 -150 498v1270h558v-1260q0 -146 96 -188q68 -30 272 -30q194 0 252 36q72 46 72 206v1236h556zM848 2368h244l250 -436h-40l-360 280l-304 -280h-38z" />
    <glyph glyph-name="Udieresis" unicode="&#xdc;" horiz-adv-x="1952" 
d="M1900 1904v-1270q0 -400 -254 -544q-188 -106 -626 -106q-592 0 -776 152q-150 124 -150 498v1270h558v-1260q0 -146 96 -188q68 -30 272 -30q194 0 252 36q72 46 72 206v1236h556zM1204 2246q56 0 99 -43t43 -101q0 -61 -42.5 -102.5t-99.5 -41.5q-59 0 -101.5 42.5
t-42.5 101.5q0 58 43 101t101 43zM738 2246q60 0 102 -42t42 -102q0 -58 -42 -101t-100 -43q-60 0 -102 42t-42 102t40 100q44 44 102 44z" />
    <glyph glyph-name="Yacute" unicode="&#xdd;" horiz-adv-x="1952" 
d="M1176 668v-668h-562v668l-740 1236h638l372 -732h22l384 732h652zM1316 2374l-390 -454h-44l138 454h296z" />
    <glyph glyph-name="Thorn" unicode="&#xde;" horiz-adv-x="1504" 
d="M554 1384h98q197 0 296 -16q273 -44 390 -246q62 -107 62 -224q0 -195 -142 -336q-100 -97 -234 -130q-59 -15 -124 -24q-41 -6 -254 -6h-92v-82q0 -144 30 -198q43 -74 172 -74h54v-48h-762v48h50q124 0 176 74q26 37 26 194v1146q0 125 -3 142q-13 70 -77 108
q-51 30 -120 30h-52v48h762v-48h-52q-62 0 -124 -32q-80 -32 -80 -240v-86zM554 1280v-784h58q169 0 252 36q232 101 232 362q0 208 -150 312q-71 49 -148 64q-52 10 -180 10h-64z" />
    <glyph glyph-name="germandbls" unicode="&#xdf;" horiz-adv-x="1352" 
d="M46 0v48q73 0 112 28q33 17 48 58q14 37 14 164v978q0 602 472 602q201 0 330 -113q134 -119 134 -317q0 -204 -142 -306q-44 -31 -110 -58q360 -103 360 -526q0 -231 -120 -403.5t-322 -172.5q-99 0 -173 56q-81 61 -81 158q0 55 28 86q33 30 78 30q49 0 78.5 -31
t29.5 -73q0 -12 -11 -69q-3 -12 -3 -21q0 -62 74 -62q198 0 198 356q0 274 -97 437q-105 173 -293 173v76q284 0 284 356q0 174 -69 255t-183 81q-242 0 -242 -422v-1368h-394z" />
    <glyph glyph-name="agrave" unicode="&#xe0;" horiz-adv-x="1200" 
d="M1004 196h-16q-46 -212 -426 -212q-264 0 -382 72q-152 94 -152 342q0 422 534 422q160 0 232 -18q134 -34 168 -134h26v212q0 110 -32 148q-46 54 -190 54q-196 0 -196 -144h-480q0 276 208 360q124 50 468 50q402 0 534 -84q162 -102 162 -432v-832h-474zM512 410
q0 -94 76 -126q44 -18 136 -18q140 0 184 18q80 32 80 146q0 122 -264 122q-212 0 -212 -142zM938 1614l-74 -156l-636 180l140 284z" />
    <glyph glyph-name="aacute" unicode="&#xe1;" horiz-adv-x="1200" 
d="M1004 196h-16q-46 -212 -426 -212q-264 0 -382 72q-152 94 -152 342q0 422 534 422q160 0 232 -18q134 -34 168 -134h26v212q0 110 -32 148q-46 54 -190 54q-196 0 -196 -144h-480q0 276 208 360q124 50 468 50q402 0 534 -84q162 -102 162 -432v-832h-474zM512 410
q0 -94 76 -126q44 -18 136 -18q140 0 184 18q80 32 80 146q0 122 -264 122q-212 0 -212 -142zM863 1834l-390 -454h-44l138 454h296z" />
    <glyph glyph-name="acircumflex" unicode="&#xe2;" horiz-adv-x="1200" 
d="M1004 196h-16q-46 -212 -426 -212q-264 0 -382 72q-152 94 -152 342q0 422 534 422q160 0 232 -18q134 -34 168 -134h26v212q0 110 -32 148q-46 54 -190 54q-196 0 -196 -144h-480q0 276 208 360q124 50 468 50q402 0 534 -84q162 -102 162 -432v-832h-474zM512 410
q0 -94 76 -126q44 -18 136 -18q140 0 184 18q80 32 80 146q0 122 -264 122q-212 0 -212 -142zM445 1828h244l250 -436h-40l-360 280l-304 -280h-38z" />
    <glyph glyph-name="atilde" unicode="&#xe3;" horiz-adv-x="1200" 
d="M1004 196h-16q-46 -212 -426 -212q-264 0 -382 72q-152 94 -152 342q0 422 534 422q160 0 232 -18q134 -34 168 -134h26v212q0 110 -32 148q-46 54 -190 54q-196 0 -196 -144h-480q0 276 208 360q124 50 468 50q402 0 534 -84q162 -102 162 -432v-832h-474zM512 410
q0 -94 76 -126q44 -18 136 -18q140 0 184 18q80 32 80 146q0 122 -264 122q-212 0 -212 -142zM189 1448h-42q0 178 74 262q71 80 174 80q98 0 265 -111q109 -73 163 -73q92 0 126 184h40q0 -239 -148 -320q-51 -28 -102 -28q-101 0 -258 106q-122 82 -170 82q-53 0 -86 -48
q-13 -24 -36 -134z" />
    <glyph glyph-name="adieresis" unicode="&#xe4;" horiz-adv-x="1200" 
d="M1004 196h-16q-46 -212 -426 -212q-264 0 -382 72q-152 94 -152 342q0 422 534 422q160 0 232 -18q134 -34 168 -134h26v212q0 110 -32 148q-46 54 -190 54q-196 0 -196 -144h-480q0 276 208 360q124 50 468 50q402 0 534 -84q162 -102 162 -432v-832h-474zM512 410
q0 -94 76 -126q44 -18 136 -18q140 0 184 18q80 32 80 146q0 122 -264 122q-212 0 -212 -142zM800 1766q56 0 99 -43t43 -101q0 -61 -42.5 -102.5t-99.5 -41.5q-59 0 -101.5 42.5t-42.5 101.5q0 58 43 101t101 43zM334 1766q60 0 102 -42t42 -102q0 -58 -42 -101t-100 -43
q-60 0 -102 42t-42 102t40 100q44 44 102 44z" />
    <glyph glyph-name="aring" unicode="&#xe5;" horiz-adv-x="1200" 
d="M1004 196h-16q-46 -212 -426 -212q-264 0 -382 72q-152 94 -152 342q0 422 534 422q160 0 232 -18q134 -34 168 -134h26v212q0 110 -32 148q-46 54 -190 54q-196 0 -196 -144h-480q0 276 208 360q124 50 468 50q402 0 534 -84q162 -102 162 -432v-832h-474zM512 410
q0 -94 76 -126q44 -18 136 -18q140 0 184 18q80 32 80 146q0 122 -264 122q-212 0 -212 -142zM567 1882q106 0 180 -73t74 -179q0 -107 -74.5 -180.5t-179.5 -73.5t-178.5 74.5t-73.5 179.5t72.5 178.5t179.5 73.5zM567 1790q-68 0 -114 -46t-46 -114t46.5 -115t113.5 -47
q66 0 114 48t48 114q0 67 -47 113.5t-115 46.5z" />
    <glyph glyph-name="ae" unicode="&#xe6;" horiz-adv-x="1804" 
d="M968 748v-98q0 -488 338 -488q127 0 232 80q62 47 142 210l42 -30q-48 -212 -206 -356q-112 -102 -282 -102q-144 0 -246 62q-48 29 -146 148l-72 -56q-33 -28 -104 -78q-133 -76 -276 -76q-126 0 -210 86t-84 216q0 134 81 223q58 64 201 139q168 89 366 160v122
q0 260 -194 260q-186 0 -186 -138q0 -158 -48 -196q-26 -16 -58 -16q-52 0 -80 30q-40 44 -40 96q0 160 199 252q103 48 243 48q223 0 316 -98q27 -29 42 -64q131 162 354 162q191 0 310.5 -128.5t119.5 -369.5h-754zM968 834h500q0 318 -244 318q-105 0 -180.5 -82.5
t-75.5 -235.5zM806 242q-30 63 -46 157t-16 185v118q-178 -53 -328 -168q-98 -75 -98 -194q0 -96 57 -164q61 -72 155 -72q95 0 276 138z" />
    <glyph glyph-name="ccedilla" unicode="&#xe7;" horiz-adv-x="1200" 
d="M1414 532q0 -352 -156 -456q-136 -92 -554 -92q-408 0 -554 138t-146 542q0 370 124 512q150 172 576 172q248 0 372 -28q338 -76 338 -488h-476q0 104 -40 142t-194 38q-152 0 -194 -104q-22 -56 -22 -244q0 -198 20 -246q38 -98 196 -98q144 0 189 37t45 175h476z
M585 22h80l-66 -106q164 -34 164 -192q0 -107 -91 -176q-83 -62 -193 -62q-48 0 -124 8v58q28 -6 64 -6q62 -1 111 42t49 104q0 39 -31 69t-75 27l-34 -2z" />
    <glyph glyph-name="egrave" unicode="&#xe8;" horiz-adv-x="1200" 
d="M1438 442q0 -274 -202 -380q-150 -78 -516 -78q-404 0 -556 140q-160 146 -160 540q0 408 154 550q146 134 562 134q408 0 560 -136q158 -146 158 -548v-74h-958q0 -168 36 -226q50 -74 204 -74q128 0 176 24q66 32 66 128h476zM954 832q0 138 -60 180q-46 32 -182 32
q-130 0 -178 -40q-54 -44 -54 -172h474zM973 1614l-74 -156l-636 180l140 284z" />
    <glyph glyph-name="eacute" unicode="&#xe9;" horiz-adv-x="1200" 
d="M1438 442q0 -274 -202 -380q-150 -78 -516 -78q-404 0 -556 140q-160 146 -160 540q0 408 154 550q146 134 562 134q408 0 560 -136q158 -146 158 -548v-74h-958q0 -168 36 -226q50 -74 204 -74q128 0 176 24q66 32 66 128h476zM954 832q0 138 -60 180q-46 32 -182 32
q-130 0 -178 -40q-54 -44 -54 -172h474zM976 1834l-390 -454h-44l138 454h296z" />
    <glyph glyph-name="ecircumflex" unicode="&#xea;" horiz-adv-x="1200" 
d="M1438 442q0 -274 -202 -380q-150 -78 -516 -78q-404 0 -556 140q-160 146 -160 540q0 408 154 550q146 134 562 134q408 0 560 -136q158 -146 158 -548v-74h-958q0 -168 36 -226q50 -74 204 -74q128 0 176 24q66 32 66 128h476zM954 832q0 138 -60 180q-46 32 -182 32
q-130 0 -178 -40q-54 -44 -54 -172h474zM482 1828h244l250 -436h-40l-360 280l-304 -280h-38z" />
    <glyph glyph-name="edieresis" unicode="&#xeb;" horiz-adv-x="1200" 
d="M1438 442q0 -274 -202 -380q-150 -78 -516 -78q-404 0 -556 140q-160 146 -160 540q0 408 154 550q146 134 562 134q408 0 560 -136q158 -146 158 -548v-74h-958q0 -168 36 -226q50 -74 204 -74q128 0 176 24q66 32 66 128h476zM954 832q0 138 -60 180q-46 32 -182 32
q-130 0 -178 -40q-54 -44 -54 -172h474zM837 1766q56 0 99 -43t43 -101q0 -61 -42.5 -102.5t-99.5 -41.5q-59 0 -101.5 42.5t-42.5 101.5q0 58 43 101t101 43zM371 1766q60 0 102 -42t42 -102q0 -58 -42 -101t-100 -43q-60 0 -102 42t-42 102t40 100q44 44 102 44z" />
    <glyph glyph-name="igrave" unicode="&#xec;" horiz-adv-x="751" 
d="M499 1244v-970q0 -110 18 -152q16 -37 47.5 -55.5t120.5 -18.5v-48h-588v48q91 0 118 16q66 40 66 210v466q0 188 -12 254q-7 40 -28 58q-26 18 -54 18q-30 0 -90 -20l-18 48l364 146h56zM715 1614l-74 -156l-636 180l140 284z" />
    <glyph glyph-name="iacute" unicode="&#xed;" horiz-adv-x="751" 
d="M499 1244v-970q0 -110 18 -152q16 -37 47.5 -55.5t120.5 -18.5v-48h-588v48q91 0 118 16q66 40 66 210v466q0 188 -12 254q-7 40 -28 58q-26 18 -54 18q-30 0 -90 -20l-18 48l364 146h56zM679 1834l-390 -454h-44l138 454h296z" />
    <glyph glyph-name="icircumflex" unicode="&#xee;" horiz-adv-x="751" 
d="M499 1244v-970q0 -110 18 -152q16 -37 47.5 -55.5t120.5 -18.5v-48h-588v48q91 0 118 16q66 40 66 210v466q0 188 -12 254q-7 40 -28 58q-26 18 -54 18q-30 0 -90 -20l-18 48l364 146h56zM248 1828h244l250 -436h-40l-360 280l-304 -280h-38z" />
    <glyph glyph-name="idieresis" unicode="&#xef;" horiz-adv-x="751" 
d="M499 1244v-970q0 -110 18 -152q16 -37 47.5 -55.5t120.5 -18.5v-48h-588v48q91 0 118 16q66 40 66 210v466q0 188 -12 254q-7 40 -28 58q-26 18 -54 18q-30 0 -90 -20l-18 48l364 146h56zM609 1766q56 0 99 -43t43 -101q0 -61 -42.5 -102.5t-99.5 -41.5
q-59 0 -101.5 42.5t-42.5 101.5q0 58 43 101t101 43zM143 1766q60 0 102 -42t42 -102q0 -58 -42 -101t-100 -43q-60 0 -102 42t-42 102t40 100q44 44 102 44z" />
    <glyph glyph-name="eth" unicode="&#xf0;" horiz-adv-x="1352" 
d="M620 1544l-326 -178l-40 72l308 174q-104 101 -132 124q-50 41 -118 84l36 58q173 -88 326 -206l330 184l44 -72l-302 -172q506 -445 506 -986q0 -399 -288 -577q-138 -85 -306 -85q-249 0 -412 187q-156 178 -156 431q0 277 182 482q151 170 372 170q117 0 224 -78
q-104 217 -248 388zM632 1154q-298 0 -298 -470q0 -397 197 -555q91 -73 191 -73q286 0 286 442q0 238 -72 415q-99 241 -304 241z" />
    <glyph glyph-name="ntilde" unicode="&#xf1;" horiz-adv-x="1352" 
d="M558 1332v-246h20q88 262 438 262q470 0 470 -426v-922h-478v820q0 192 -196 192q-144 0 -202 -70q-52 -62 -52 -208v-734h-484v1332h484zM303 1448h-42q0 178 74 262q71 80 174 80q98 0 265 -111q109 -73 163 -73q92 0 126 184h40q0 -239 -148 -320q-51 -28 -102 -28
q-101 0 -258 106q-122 82 -170 82q-53 0 -86 -48q-13 -24 -36 -134z" />
    <glyph glyph-name="ograve" unicode="&#xf2;" horiz-adv-x="1352" 
d="M1482 664q0 -422 -158 -558q-142 -122 -578 -122q-426 0 -574 126q-160 140 -160 554q0 424 156 560q142 124 578 124q442 0 582 -122q154 -132 154 -562zM496 664q0 -206 30 -258q46 -86 224 -86q174 0 220 88q30 54 30 256q0 204 -28 258q-46 90 -222 90
q-178 0 -224 -88q-30 -56 -30 -260zM1019 1614l-74 -156l-636 180l140 284z" />
    <glyph glyph-name="oacute" unicode="&#xf3;" horiz-adv-x="1352" 
d="M1482 664q0 -422 -158 -558q-142 -122 -578 -122q-426 0 -574 126q-160 140 -160 554q0 424 156 560q142 124 578 124q442 0 582 -122q154 -132 154 -562zM496 664q0 -206 30 -258q46 -86 224 -86q174 0 220 88q30 54 30 256q0 204 -28 258q-46 90 -222 90
q-178 0 -224 -88q-30 -56 -30 -260zM1004 1834l-390 -454h-44l138 454h296z" />
    <glyph glyph-name="ocircumflex" unicode="&#xf4;" horiz-adv-x="1352" 
d="M1482 664q0 -422 -158 -558q-142 -122 -578 -122q-426 0 -574 126q-160 140 -160 554q0 424 156 560q142 124 578 124q442 0 582 -122q154 -132 154 -562zM496 664q0 -206 30 -258q46 -86 224 -86q174 0 220 88q30 54 30 256q0 204 -28 258q-46 90 -222 90
q-178 0 -224 -88q-30 -56 -30 -260zM550 1828h244l250 -436h-40l-360 280l-304 -280h-38z" />
    <glyph glyph-name="otilde" unicode="&#xf5;" horiz-adv-x="1352" 
d="M1482 664q0 -422 -158 -558q-142 -122 -578 -122q-426 0 -574 126q-160 140 -160 554q0 424 156 560q142 124 578 124q442 0 582 -122q154 -132 154 -562zM496 664q0 -206 30 -258q46 -86 224 -86q174 0 220 88q30 54 30 256q0 204 -28 258q-46 90 -222 90
q-178 0 -224 -88q-30 -56 -30 -260zM282 1448h-42q0 178 74 262q71 80 174 80q98 0 265 -111q109 -73 163 -73q92 0 126 184h40q0 -239 -148 -320q-51 -28 -102 -28q-101 0 -258 106q-122 82 -170 82q-53 0 -86 -48q-13 -24 -36 -134z" />
    <glyph glyph-name="odieresis" unicode="&#xf6;" horiz-adv-x="1352" 
d="M1482 664q0 -422 -158 -558q-142 -122 -578 -122q-426 0 -574 126q-160 140 -160 554q0 424 156 560q142 124 578 124q442 0 582 -122q154 -132 154 -562zM496 664q0 -206 30 -258q46 -86 224 -86q174 0 220 88q30 54 30 256q0 204 -28 258q-46 90 -222 90
q-178 0 -224 -88q-30 -56 -30 -260zM884 1765q56 0 99 -43t43 -101q0 -61 -42.5 -102.5t-99.5 -41.5q-59 0 -101.5 42.5t-42.5 101.5q0 58 43 101t101 43zM418 1765q60 0 102 -42t42 -102q0 -58 -42 -101t-100 -43q-60 0 -102 42t-42 102t40 100q44 44 102 44z" />
    <glyph glyph-name="divide" unicode="&#xf7;" horiz-adv-x="1484" 
d="M742 1420q47 0 80 -36q34 -31 34 -80q0 -48 -33 -81t-83 -33q-47 0 -80.5 33.5t-33.5 80.5q0 116 116 116zM1454 844h-1424v110h1424v-110zM742 600q48 0 82 -34t34 -82t-34 -82t-82 -34q-50 0 -83 35t-33 81q0 50 33 83t83 33z" />
    <glyph glyph-name="oslash" unicode="&#xf8;" horiz-adv-x="1352" 
d="M1064 1098l176 194l60 -56l-178 -202q140 -180 140 -410q0 -153 -76 -324q-149 -336 -516 -336q-57 0 -105 8q-36 6 -89 26q-88 33 -184 116l-178 -202l-62 56l186 210q-140 172 -140 422q0 159 78 318q77 156 216 242q136 84 296 84q202 0 376 -146zM930 950
q-70 117 -135 162.5t-151 45.5q-300 0 -300 -456q0 -164 50 -346zM966 864l-532 -594q119 -214 288 -214q296 0 296 474q0 157 -52 334z" />
    <glyph glyph-name="ugrave" unicode="&#xf9;" horiz-adv-x="1352" 
d="M1004 0l12 258h-20q-94 -274 -438 -274q-496 0 -496 438v910h478v-796q0 -108 26 -152q38 -64 150 -64q272 0 272 192v820h478v-1332h-462zM1025 1614l-74 -156l-636 180l140 284z" />
    <glyph glyph-name="uacute" unicode="&#xfa;" horiz-adv-x="1352" 
d="M1004 0l12 258h-20q-94 -274 -438 -274q-496 0 -496 438v910h478v-796q0 -108 26 -152q38 -64 150 -64q272 0 272 192v820h478v-1332h-462zM980 1834l-390 -454h-44l138 454h296z" />
    <glyph glyph-name="ucircumflex" unicode="&#xfb;" horiz-adv-x="1352" 
d="M1004 0l12 258h-20q-94 -274 -438 -274q-496 0 -496 438v910h478v-796q0 -108 26 -152q38 -64 150 -64q272 0 272 192v820h478v-1332h-462zM522 1828h244l250 -436h-40l-360 280l-304 -280h-38z" />
    <glyph glyph-name="udieresis" unicode="&#xfc;" horiz-adv-x="1352" 
d="M1004 0l12 258h-20q-94 -274 -438 -274q-496 0 -496 438v910h478v-796q0 -108 26 -152q38 -64 150 -64q272 0 272 192v820h478v-1332h-462zM883 1765q56 0 99 -43t43 -101q0 -61 -42.5 -102.5t-99.5 -41.5q-59 0 -101.5 42.5t-42.5 101.5q0 58 43 101t101 43zM417 1765
q60 0 102 -42t42 -102q0 -58 -42 -101t-100 -43q-60 0 -102 42t-42 102t40 100q44 44 102 44z" />
    <glyph glyph-name="yacute" unicode="&#xfd;" horiz-adv-x="1352" 
d="M1056 -118q-70 -272 -194 -370q-144 -110 -436 -102l-164 4v304l82 -4q134 -6 202 86q52 70 52 200h-266l-430 1332h500l290 -1082l246 1082h488zM1043 1834l-390 -454h-44l138 454h296z" />
    <glyph glyph-name="thorn" unicode="&#xfe;" horiz-adv-x="1352" 
d="M-2 1726l372 152h50v-920q171 286 386 286q182 0 304 -142q150 -175 150 -454q0 -313 -180 -518q-146 -166 -372 -166q-101 0 -170 26q-51 19 -118 80v-368q0 -170 65 -207q37 -21 139 -21v-50h-634v50l34 -2q28 -2 65 7q74 17 97 69q14 31 14 162v1780q0 120 -10 149.5
t-31.5 47t-64.5 17.5q-34 0 -80 -20zM420 880v-452q0 -200 43 -265q19 -30 59 -63q71 -58 182 -58q131 0 214 104q106 133 106 378q0 273 -122 426q-83 104 -200 104q-60 0 -126 -32q-39 -19 -156 -142z" />
    <glyph glyph-name="ydieresis" unicode="&#xff;" horiz-adv-x="1352" 
d="M1056 -118q-70 -272 -194 -370q-144 -110 -436 -102l-164 4v304l82 -4q134 -6 202 86q52 70 52 200h-266l-430 1332h500l290 -1082l246 1082h488zM931 1766q56 0 99 -43t43 -101q0 -61 -42.5 -102.5t-99.5 -41.5q-59 0 -101.5 42.5t-42.5 101.5q0 58 43 101t101 43z
M465 1766q60 0 102 -42t42 -102q0 -58 -42 -101t-100 -43q-60 0 -102 42t-42 102t40 100q44 44 102 44z" />
    <glyph glyph-name="dotlessi" unicode="&#x131;" horiz-adv-x="751" 
d="M499 1244v-970q0 -110 18 -152q16 -37 47.5 -55.5t120.5 -18.5v-48h-588v48q91 0 118 16q66 40 66 210v466q0 188 -12 254q-7 40 -28 58q-26 18 -54 18q-30 0 -90 -20l-18 48l364 146h56z" />
    <glyph glyph-name="OE" unicode="&#x152;" horiz-adv-x="2404" 
d="M1458 1692v-706h242q276 0 276 258h52v-622h-52q0 151 -68 214q-56 52 -208 52h-242v-590q0 -105 11.5 -136.5t44.5 -51.5q25 -10 102 -10h138q244 0 350 96q102 93 170 252h54l-144 -448h-640q-189 0 -226 -2l-220 -12q-38 -1 -118 -4q-64 -4 -74 -4q-219 0 -406 114
q-193 118 -301 347q-99 211 -99 453q0 339 186 602q224 316 650 312q38 -2 125 -7q75 -3 132.5 -3t174.5 -3t176 -3h624l16 -394h-42q-29 153 -56 198q-40 66 -114 86q-44 12 -176 12h-338zM1204 1376q0 166 -26 226q-24 54 -70 82q-64 38 -166 38q-164 0 -288 -95
q-127 -98 -190 -297q-28 -89 -46 -213q-16 -112 -16 -235q0 -205 56 -398q120 -412 478 -412q98 0 162 34q106 56 106 342v928z" />
    <glyph glyph-name="oe" unicode="&#x153;" horiz-adv-x="1952" 
d="M1140 756l-4 -50q-7 -94 45 -255q44 -139 131 -205t192 -66q220 0 316 288l42 -22q-86 -482 -448 -482q-131 0 -220.5 62.5t-135.5 149.5q-83 -109 -186.5 -160.5t-233.5 -51.5q-236 0 -393 169.5t-157 450.5q0 268 142 455q156 205 416 205q272 0 412 -208
q148 210 374 210q194 0 316 -130q114 -121 114 -360h-722zM598 1172q-45 0 -114 -36q-61 -32 -100 -118q-48 -106 -48 -306q0 -340 134 -536q82 -120 202 -120q272 0 272 444q0 247 -59 418q-88 254 -287 254zM1140 842h462q0 90 -32 178q-23 62 -80 100t-118 38
q-88 0 -158 -80q-74 -85 -74 -236z" />
    <glyph glyph-name="Scaron" unicode="&#x160;" horiz-adv-x="1504" 
d="M1044 1160q498 -26 618 -112q156 -112 156 -438q0 -216 -30 -302q-112 -324 -878 -324q-330 0 -468 26q-240 44 -338 208q-84 138 -84 400h538q0 -142 72 -182q62 -34 280 -34q210 0 274 28q78 34 78 148q0 122 -48 150q-22 10 -252 26l-122 8q-176 4 -438 26
q-378 76 -378 552q0 472 412 552q154 30 474 30q290 0 424 -22q428 -70 428 -512v-82h-538q0 136 -72 172q-52 26 -242 26q-210 0 -276 -42q-48 -30 -48 -122q0 -106 58 -140q36 -22 168 -28zM852 1932h-242l-250 436h40l360 -280l302 280h40z" />
    <glyph glyph-name="scaron" unicode="&#x161;" horiz-adv-x="1052" 
d="M922 954q-10 72 -76 96q-38 14 -122 14q-176 0 -220 -22q-32 -16 -32 -84q0 -84 92 -106q36 -8 160 -8q412 0 548 -64q174 -82 174 -346q0 -266 -216 -370q-166 -80 -506 -80q-258 0 -354 14q-362 52 -362 420h480q0 -100 74 -132q46 -20 162 -20q150 0 168 4
q82 20 82 116q0 90 -62 114q-40 16 -188 16q-438 0 -586 94q-130 82 -130 304q0 360 350 416q112 18 366 18q190 0 288 -12q360 -44 360 -316v-66h-450zM629 1392h-242l-250 436h40l360 -280l302 280h40z" />
    <glyph glyph-name="Ydieresis" unicode="&#x178;" horiz-adv-x="1952" 
d="M1176 668v-668h-562v668l-740 1236h638l372 -732h22l384 732h652zM1204 2306q56 0 99 -43t43 -101q0 -61 -42.5 -102.5t-99.5 -41.5q-59 0 -101.5 42.5t-42.5 101.5q0 58 43 101t101 43zM738 2306q60 0 102 -42t42 -102q0 -58 -42 -101t-100 -43q-60 0 -102 42t-42 102
t40 100q44 44 102 44z" />
    <glyph glyph-name="florin" unicode="&#x192;" horiz-adv-x="1352" 
d="M906 1156h236l-22 -88h-230q-72 -371 -228 -934q-126 -455 -270 -594q-112 -108 -228 -108q-111 0 -150 84q-12 25 -12 54q0 50 32 84t70 34q34 0 60 -24q23 -21 26 -50q0 -29 -18 -50q-11 -16 -14 -26q1 -9 10 -18q5 -7 24 -10q24 0 48 14q40 23 77 81q48 78 81 237
l112 548l164 678h-234l20 88q112 0 164 18q31 11 56 44q36 48 80 176q96 282 184 360t194 78q71 0 122 -38q58 -42 58 -110q0 -44 -25 -73t-63 -29q-84 0 -84 74q0 22 14 44t14 36q0 13 -10 26q-11 4 -36 8q-68 0 -113 -81q-16 -28 -23 -61q-35 -153 -86 -472z" />
    <glyph glyph-name="circumflex" unicode="&#x2c6;" horiz-adv-x="900" 
d="M328 1828h244l250 -436h-40l-360 280l-304 -280h-38z" />
    <glyph glyph-name="caron" unicode="&#x2c7;" horiz-adv-x="900" 
d="M572 1392h-242l-250 436h40l360 -280l302 280h40z" />
    <glyph glyph-name="macron" unicode="&#xaf;" horiz-adv-x="1352" 
d="M1376 1930h-1398v110h1398v-110z" />
    <glyph glyph-name="macron" unicode="&#x2c9;" horiz-adv-x="1352" 
d="M1376 1930h-1398v110h1398v-110z" />
    <glyph glyph-name="ring" unicode="&#x2da;" horiz-adv-x="900" 
d="M450 1880q106 0 180 -73t74 -179q0 -107 -74.5 -180.5t-179.5 -73.5t-178.5 74.5t-73.5 179.5t72.5 178.5t179.5 73.5zM450 1788q-68 0 -114 -46t-46 -114t46.5 -115t113.5 -47q66 0 114 48t48 114q0 67 -47 113.5t-115 46.5z" />
    <glyph glyph-name="tilde" unicode="&#x2dc;" horiz-adv-x="900" 
d="M72 1448h-42q0 178 74 262q71 80 174 80q98 0 265 -111q109 -73 163 -73q92 0 126 184h40q0 -239 -148 -320q-51 -28 -102 -28q-101 0 -258 106q-122 82 -170 82q-53 0 -86 -48q-13 -24 -36 -134z" />
    <glyph glyph-name="mu" unicode="&#xb5;" horiz-adv-x="1558" 
d="M258 1210h218v-704q0 -186 24 -262q17 -53 61.5 -85.5t100.5 -32.5q154 0 312 176v908h218v-864q0 -138 12 -178q8 -28 29 -45t49 -17q35 0 58 28q33 39 48 136h56q0 -150 -82 -234q-70 -72 -180 -72q-102 0 -158 76q-38 52 -50 174q-211 -250 -414 -250q-72 0 -122 26
q-36 19 -82 86v-50q-2 -9 -2 -12q0 -109 44 -314q18 -84 18 -138q0 -146 -124 -146q-116 0 -116 144q0 56 40 218q23 95 28 138q17 165 16 236l-2 98v960z" />
    <glyph glyph-name="mu" unicode="&#x3bc;" horiz-adv-x="1558" 
d="M258 1210h218v-704q0 -186 24 -262q17 -53 61.5 -85.5t100.5 -32.5q154 0 312 176v908h218v-864q0 -138 12 -178q8 -28 29 -45t49 -17q35 0 58 28q33 39 48 136h56q0 -150 -82 -234q-70 -72 -180 -72q-102 0 -158 76q-38 52 -50 174q-211 -250 -414 -250q-72 0 -122 26
q-36 19 -82 86v-50q-2 -9 -2 -12q0 -109 44 -314q18 -84 18 -138q0 -146 -124 -146q-116 0 -116 144q0 56 40 218q23 95 28 138q17 165 16 236l-2 98v960z" />
    <glyph glyph-name="quotesinglbase" unicode="&#x201a;" horiz-adv-x="676" 
d="M145 -450v58q285 94 285 339q0 54 -30 54q-13 0 -63 -26q-23 -12 -51 -12q-141 0 -141 144q0 68 52 113q49 44 118 44q103 0 167 -89q57 -80 57 -188q0 -308 -394 -437z" />
    <glyph glyph-name="quotedblbase" unicode="&#x201e;" horiz-adv-x="1200" 
d="M152 -418v56q216 123 216 278q0 38 -12 56q-15 18 -32 18q-11 0 -42 -10t-58 -10q-136 0 -136 136q0 68 54 114q51 44 120 44q99 0 167 -86q63 -79 63 -180q0 -314 -340 -416zM782 -418v56q110 58 164 128q52 67 52 142q0 82 -42 82q-15 0 -46 -10t-54 -10q-56 0 -95 41
t-39 97q0 63 47.5 109.5t122.5 46.5q99 0 168 -85q64 -80 64 -181q0 -299 -342 -416z" />
    <glyph glyph-name="dagger" unicode="&#x2020;" horiz-adv-x="1352" 
d="M692 -556h-50q0 553 -42 926q-31 278 -90 500q66 56 96 122q36 79 36 190q-66 0 -174 -46q-136 -58 -202 -58q-132 0 -132 126q0 130 136 130q37 0 60 -8q15 -4 41.5 -15t96.5 -43q85 -38 174 -38q0 56 -8 80q-7 29 -18 62q-2 6 -22 52q-72 166 -72 256q0 68 40 118
q43 54 108 54q63 0 105 -56q39 -51 39 -116q0 -46 -10 -78q-11 -49 -61.5 -168.5t-50.5 -203.5q74 0 174 38l156 59q31 7 56 7q59 0 99.5 -37.5t40.5 -92.5q0 -126 -136 -126q-37 0 -90 15l-128 47l-90 32l-82 10q0 -106 36 -188q31 -72 96 -124q-65 -249 -86 -465
q-27 -274 -39 -568q-7 -178 -7 -393z" />
    <glyph glyph-name="daggerdbl" unicode="&#x2021;" horiz-adv-x="1352" 
d="M700 1288q9 -88 34 -128q32 -51 90 -96q-68 -101 -95 -190q-29 -94 -29 -236q0 -225 124 -414q-64 -55 -88 -98t-36 -126l74 14q13 2 94 36q111 46 178 46q55 0 88.5 -32.5t33.5 -83.5t-34.5 -86.5t-87.5 -35.5q-51 0 -166 50q-32 14 -98 34q-14 4 -82 10q4 -36 17 -108
q5 -24 27 -72q66 -146 66 -216q0 -140 -132 -140t-132 144q0 28 8 68q5 25 52 148q30 79 40 176q-59 0 -92 -12q-26 -3 -98 -36q-102 -46 -150 -46q-50 0 -85 33t-35 83q0 122 126 122q55 0 156 -43q57 -25 94 -35q31 -8 84 -8q-18 110 -69 164q-20 21 -57 50q62 82 88 158
q40 115 40 272q0 154 -42 272q-26 74 -86 138q67 52 88 90t38 134q-50 0 -78 -10q-34 -4 -126 -43q-83 -35 -142 -35q-51 0 -83.5 33.5t-32.5 82.5q0 46 32 80t82 34q60 0 174 -46q87 -35 174 -46q0 56 -10 84q-6 26 -60 170l-30 80l-3 28q-1 9 -1 30q0 148 132 148
q55 0 91.5 -39.5t36.5 -112.5q0 -44 -8 -68q-9 -39 -46 -120q-48 -107 -48 -200q29 2 84 10q36 10 100 38q99 44 166 44q118 0 118 -116q0 -53 -34.5 -84.5t-89.5 -31.5q-63 0 -166 42q-30 14 -90 37q-15 4 -27 5q-42 5 -61 6z" />
    <glyph glyph-name="perthousand" unicode="&#x2030;" horiz-adv-x="2704" 
d="M1610 1832l-1282 -1904h-118l1284 1904h116zM466 1832q101 0 192 -60q87 -58 140 -174q50 -111 50 -250q0 -189 -91 -324q-105 -154 -285 -154q-100 0 -192 58q-89 55 -142 170q-28 60 -39 116q-13 65 -13 136q0 137 52 252q104 230 328 230zM460 1762q-35 0 -66 -22
q-44 -40 -66 -114q-30 -98 -30 -284q0 -247 62 -340q44 -66 108 -66q61 0 104 68q66 104 66 356q0 402 -178 402zM1358 888q97 0 186 -58q86 -56 140 -172t54 -246q0 -302 -197 -426q-93 -58 -187 -58q-149 0 -264.5 128.5t-115.5 349.5q0 137 55 255.5t143 170.5
q96 56 186 56zM1354 818q-97 0 -142 -145q-26 -82 -26 -277q0 -239 60 -332q41 -64 106 -64t108 66q64 98 64 334q0 248 -66 352q-42 66 -104 66zM2232 888q228 0 332 -224q52 -112 52 -242q0 -312 -189 -434q-94 -60 -193 -60q-221 0 -328 226q-50 106 -50 244
q0 322 197 435q95 55 179 55zM2232 818q-67 0 -106 -62q-58 -92 -58 -354q0 -243 60 -336q43 -66 110 -66q96 0 140 150q26 88 26 284q0 384 -172 384z" />
    <glyph glyph-name="guilsinglleft" unicode="&#x2039;" horiz-adv-x="900" 
d="M744 -10h-76l-510 622l510 622h76l-322 -622z" />
    <glyph glyph-name="guilsinglright" unicode="&#x203a;" horiz-adv-x="900" 
d="M152 1234h76l520 -624l-520 -620h-76l320 620z" />
    <glyph glyph-name="trademark" unicode="&#x2122;" horiz-adv-x="2650" 
d="M68 1790h960l30 -266h-46q-23 186 -256 186h-98v-764q0 -109 26 -140q29 -34 114 -34v-48h-494v48q91 10 114 46q18 28 18 128v764h-100q-130 0 -178 -42q-50 -36 -74 -144h-44zM1526 1790l360 -756l350 756h368v-48q-77 0 -98 -16q-24 -12 -36 -41.5t-12 -120.5v-618
q0 -110 26 -140q29 -34 120 -34v-48h-524v48q119 0 144 58q12 28 12 114v650l-404 -870h-44l-406 858v-636q0 -95 10 -117q10 -25 36 -43q30 -14 76 -14h48v-48h-404v48q112 0 137 54q13 27 13 120v614q0 146 -50 166q-26 16 -100 16v48h378z" />
    <glyph glyph-name="minus" unicode="&#xad;" horiz-adv-x="1598" 
d="M0 696v246h1352v-246h-1352z" />
    <glyph glyph-name="minus" unicode="&#x2212;" horiz-adv-x="1598" 
d="M0 696v246h1352v-246h-1352z" />
    <glyph glyph-name="periodcentered" unicode="&#xb7;" horiz-adv-x="778" 
d="M0 472h532v-472h-532v472z" />
    <glyph glyph-name="periodcentered" unicode="&#x2219;" horiz-adv-x="778" 
d="M0 472h532v-472h-532v472z" />
    <glyph glyph-name="f70f;" unicode="&#xf70f;" horiz-adv-x="3366" 
d="M2588 1638h534v-1326q0 -192 -116 -260q-88 -52 -298 -52h-832q-212 0 -298 50q-116 68 -116 262v908q0 152 -192 152h-476q-200 0 -200 -102v-50h196v-118q-70 0 -119 -47t-49 -117v-406h50q132 0 222 -66q98 -72 98 -200q0 -126 -100 -200q-90 -66 -220 -66h-266
q-144 0 -230 92t-86 236v520q0 146 140 242h-190v156q0 392 456 392h1072q426 0 426 -392v-828q0 -152 194 -152h208q192 0 192 152v1220zM766 266q0 114 -140 114q-138 0 -138 -114t138 -114q140 0 140 114z" />
    <glyph glyph-name="f712;" unicode="&#xf712;" 
d="M-1318 2044q-4 14 -4 20q-6 30 -6 42q0 94 72 152q66 56 162 56t165 -57t69 -151q0 -100 -67 -161t-167 -61h-230q-68 0 -142 34q-84 38 -110 94l-190 -132h-458v234q0 236 136 332q114 82 364 82h610q132 0 230 90l118 -140q-128 -114 -328 -114h-536q-164 0 -164 -156
v-160l262 180q68 -184 214 -184zM-1176 2102q0 -78 78 -78t78 78t-78 78t-78 -78z" />
    <glyph glyph-name="DEL" unicode="&#xf71b;" 
d="M-8 -16h-959v2433h959v-2433z" />
    <glyph glyph-name="f700;" unicode="&#xf700;" horiz-adv-x="1986" 
d="M1740 992v-598q0 -194 -44 -270q-72 -124 -286 -124h-750l-140 500q-68 -78 -180 -78q-102 0 -172 70t-70 172q0 118 84 184q76 62 198 62q302 0 382 -266l114 -378h164q168 0 168 140v446q0 110 -130 110h-1078q0 696 652 696q192 0 332 -32q308 -70 372 -70
q134 0 348 116l74 -250q-126 -80 -302 -80q-108 0 -315 52t-305 52q-276 0 -316 -234h926q112 0 188 -54q86 -60 86 -166zM262 660q0 -86 86 -86t86 86t-86 86t-86 -86z" />
    <glyph glyph-name="f701;" unicode="&#xf701;" 
d="M-2622 1966q0 326 300 448q196 80 582 80q316 0 552 -92q330 -128 330 -394q0 -28 -2 -42h-1762zM-2088 2150h724q0 90 -152 136q-106 32 -224 32q-348 0 -348 -168z" />
    <glyph glyph-name="f709;" unicode="&#xf709;" 
d="M-1004 2044q-58 -46 -140 -46q-30 0 -72 10q-210 50 -210 270q0 132 104 204q92 66 228 66q26 0 72 -3t66 -3q118 -2 162 104l352 -140q-70 -204 -246 -204q-68 0 -182 38q-60 20 -96 20q52 -74 52 -134q0 -116 -90 -182zM-1258 2274q-6 -16 -6 -28q0 -52 60 -88
q32 -14 54 -14q54 0 72 48q6 16 6 30q0 50 -58 84q-32 14 -56 14q-50 0 -72 -46z" />
    <glyph glyph-name="f715;" unicode="&#xf715;" 
d="M-840 3118v-100q0 -54 -30 -106q-6 -10 -14 -20q164 0 164 152v236h196v-224q0 -300 -320 -300h-352v104q24 16 32 22q18 18 18 42v132q0 74 -54 74q-32 0 -74 -38q-16 -14 -36 -40q-26 26 -42 38q-54 40 -94 40q-54 0 -54 -78q62 0 111 -41t49 -103q0 -156 -212 -156
q-250 0 -250 214v102q0 92 58 152t150 60h108q68 0 130 -40q22 -14 46 -42q24 26 42 40q60 42 134 42h102q192 0 192 -162zM-1598 2908q0 -54 66 -54q62 0 62 54t-62 54q-66 0 -66 -54z" />
    <glyph glyph-name="glyph219" horiz-adv-x="676" 
 />
    <glyph glyph-name="f716;" unicode="&#xf716;" 
d="M-1594 2962v236h254v206h434v-206h254v-236h-254v-206h-434v206h-254z" />
    <glyph glyph-name="afii59686;" unicode="&#xe06;" horiz-adv-x="2252" 
d="M1806 0h-184q-108 0 -226 110l-228 222q-138 130 -284 168v-262q0 -238 -236 -238h-214q-380 0 -380 368q0 370 298 370v52q0 88 102 150l192 118q104 90 104 236q0 156 -98 156q-38 0 -68 -24q-16 -14 -40 -46q-60 100 -184 100q-58 0 -86 -42q112 0 189 -66t77 -176
q0 -102 -69 -172t-171 -70q-134 0 -220 100q-80 94 -80 232q0 144 97 252t239 108q72 0 122 -20q24 -10 90 -50q102 74 258 74q296 0 296 -340q0 -156 -109 -290t-109 -164v-152q168 -50 340 -196l250 -214v1344h534v-1450q0 -188 -202 -188zM212 1192q0 -86 88 -86
q86 0 86 86t-86 86q-88 0 -88 -86zM352 184v352q-114 0 -114 -172q0 -180 114 -180z" />
    <glyph glyph-name="f70c;" unicode="&#xf70c;" 
d="M-638 2368v-120q0 -90 -54 -154q200 0 200 184v294h246v-274q0 -372 -398 -372h-438v126q66 26 66 82v164q0 90 -70 90q-36 0 -88 -50q-14 -14 -46 -52q-32 34 -52 50q-64 52 -112 52q-70 0 -70 -98q80 0 138 -51t58 -129q0 -194 -258 -194q-130 0 -216 68
q-94 74 -94 200v126q0 114 72 188t186 74h130q90 0 162 -50q26 -18 56 -52q28 32 54 50q74 52 162 52h132q234 0 234 -204zM-1572 2114q0 -66 76 -66q78 0 78 66t-78 66q-76 0 -76 -66z" />
    <glyph glyph-name="f70d;" unicode="&#xf70d;" 
d="M-996 2130v246h254v204h452v-204h254v-246h-254v-204h-452v204h-254z" />
    <glyph glyph-name="afii59708;" unicode="&#xe1c;" horiz-adv-x="2318" 
d="M1078 496l-312 -422q-54 -74 -180 -74h-324q-180 0 -180 180v1134q0 324 344 324h238q128 0 216 -68q94 -74 94 -198q0 -116 -88 -190q-102 -86 -222 -76l-50 4v-852l464 618l462 -618v1380h532v-1458q0 -180 -180 -180h-324q-130 0 -180 70zM606 1478q-140 0 -140 -114
t140 -114t140 114t-140 114z" />
    <glyph glyph-name="afii59709;" unicode="&#xe1d;" horiz-adv-x="2252" 
d="M1044 496l-278 -422q-48 -74 -180 -74h-324q-180 0 -180 180v1134q0 324 344 324h238q128 0 216 -68q94 -74 94 -198q0 -116 -88 -190q-102 -86 -222 -76l-50 4v-852l430 618l430 -618v1934h534v-2012q0 -180 -182 -180h-322q-134 0 -180 70zM606 1478q-140 0 -140 -114
t140 -114t140 114t-140 114z" />
    <glyph glyph-name="afii59698;" unicode="&#xe12;" horiz-adv-x="3362" 
d="M652 0h-374q-196 0 -196 242v1004q0 392 426 392h286q92 0 182 -56q32 -20 72 -58q34 36 64 56q86 58 178 58h286q432 0 432 -392v-534q136 -20 292 -132q204 -146 284 -272v1330h534v-1458q0 -180 -182 -180h-270q-46 0 -134 106q-142 172 -198 224q-148 138 -326 194
v-344q0 -180 -182 -180h-306q-284 0 -284 368q0 136 50 230q64 118 188 118v504q0 140 -196 140h-46q-64 0 -126 -56q-20 -18 -50 -58q-40 38 -64 56q-78 58 -140 58h-46q-192 0 -192 -140v-1032q114 72 246 228q96 112 168 228q-66 0 -140 56q-102 78 -102 210
q0 110 78 188t188 78q120 0 196 -83t76 -205q0 -134 -300 -520q-286 -368 -372 -368zM958 906q0 -94 94 -94t94 94t-94 94t-94 -94zM1400 360q0 -156 74 -156v320q-74 0 -74 -164z" />
    <glyph glyph-name="afii59710;" unicode="&#xe1e;" horiz-adv-x="2572" 
d="M1404 1638l390 -1204v1204h532v-1458q0 -180 -180 -180h-294q-156 0 -180 70l-328 978l-328 -974q-24 -74 -180 -74h-296q-180 0 -180 180v930l-48 -4q-120 -10 -222 74q-90 74 -90 192q0 124 96 198q88 68 216 68h236q344 0 344 -324v-880l390 1204h122zM230 1364
q0 -114 138 -114q140 0 140 114t-140 114q-138 0 -138 -114z" />
    <glyph glyph-name="afii59705;" unicode="&#xe19;" horiz-adv-x="2506" 
d="M892 254l316 318q216 200 356 248v818h534v-790q322 0 322 -426q0 -162 -70 -280q-86 -142 -236 -142h-370q-180 0 -180 180v422q-104 -50 -256 -212l-244 -260q-128 -130 -216 -130h-308q-180 0 -180 180v930l-48 -4q-120 -10 -222 74q-90 74 -90 192q0 124 96 198
q88 68 216 68h236q344 0 344 -324v-1060zM230 1364q0 -114 138 -114q140 0 140 114t-140 114q-138 0 -138 -114zM2098 660v-464q146 0 146 234q0 230 -146 230z" />
    <glyph glyph-name="afii59699;" unicode="&#xe13;" horiz-adv-x="3462" 
d="M3092 1638v-790q324 0 324 -426q0 -164 -70 -282q-86 -140 -238 -140h-368q-180 0 -180 180v410q-112 -54 -246 -210l-180 -216q-146 -164 -196 -164h-308q-180 0 -180 180v1040q0 152 -192 152h-464q-200 0 -200 -102v-50h196v-118q-152 0 -152 -164v-406h26
q132 0 222 -66q98 -72 98 -200q0 -126 -100 -200q-90 -66 -220 -66h-242q-144 0 -230 92t-86 236v520q0 146 140 242h-206v156q0 392 456 392h1060q426 0 426 -392v-946q64 54 168 181t160 179q118 108 250 160v818h532zM3092 660v-464q144 0 144 234q0 230 -144 230z
M762 266q0 114 -140 114q-138 0 -138 -114t138 -114q140 0 140 114z" />
    <glyph glyph-name="f70e;" unicode="&#xf70e;" 
d="M-348 2084q-50 -168 -222 -168q-32 0 -74 10q-208 50 -208 270q0 132 104 204q92 66 228 66q24 0 70 -3t66 -3q120 -2 162 104l354 -140q-70 -204 -246 -204q-56 0 -148 29t-132 29q54 -72 54 -134q0 -32 -8 -60zM-684 2192q-6 -16 -6 -28q0 -52 60 -88q32 -14 54 -14
q54 0 72 48q6 16 6 28q0 40 -36 70t-78 30q-54 0 -72 -46z" />
    <glyph glyph-name="afii59693;" unicode="&#xe0d;" horiz-adv-x="3366" 
d="M2588 1638h534v-1326q0 -192 -116 -260q-88 -52 -298 -52h-832q-212 0 -298 50q-116 68 -116 262v908q0 152 -192 152h-476q-200 0 -200 -102v-50h196v-118q-70 0 -119 -47t-49 -117v-406h50q132 0 222 -66q98 -72 98 -200q0 -126 -100 -200q-90 -66 -220 -66h-266
q-144 0 -230 92t-86 236v520q0 146 140 242h-190v156q0 392 456 392h1072q426 0 426 -392v-828q0 -152 194 -152h208q192 0 192 152v1220zM2662 -164h460q6 -46 6 -84q0 -338 -468 -392q-140 -16 -460 -16q-310 0 -460 38q-290 72 -290 290q0 106 86 172q80 62 188 62
q110 0 188 -62q86 -66 86 -172q0 -44 -14 -73l-18 -37q80 -30 234 -30q468 0 468 252q0 24 -6 52zM1634 -328q0 -98 98 -98t98 98t-98 98t-98 -98zM766 266q0 114 -140 114q-138 0 -138 -114t138 -114q140 0 140 114z" />
    <glyph glyph-name="afii59716;" unicode="&#xe24;" horiz-adv-x="2228" 
d="M1450 -552v1772q0 152 -234 152h-422q-200 0 -200 -102v-50h204v-118q-176 0 -176 -164v-406h46q132 0 222 -66q98 -72 98 -200q0 -126 -100 -200q-90 -66 -220 -66h-262q-144 0 -230 92t-86 236v520q0 146 140 242h-190v156q0 392 456 392h1060q426 0 426 -392v-1798
h-532zM758 266q0 114 -140 114q-138 0 -138 -114t138 -114q140 0 140 114z" />
    <glyph glyph-name="afii59717;" unicode="&#xe25;" horiz-adv-x="2212" 
d="M1966 0h-528v586q0 184 -192 184h-500q-132 0 -132 -110v-132l50 4q120 10 222 -72q88 -74 88 -194q0 -122 -96 -198q-88 -68 -214 -68h-238q-344 0 -344 324v418q0 298 332 298h848q78 0 134 -30q18 -10 42 -32v242q0 152 -192 152h-472q-192 0 -192 -152v-52h-500v78
q0 392 454 392h980q450 0 450 -410v-1228zM746 274q0 116 -140 116t-140 -116q0 -114 140 -114t140 114z" />
    <glyph glyph-name="afii59719;" unicode="&#xe27;" horiz-adv-x="1900" 
d="M1122 1220q0 152 -192 152h-278q-194 0 -194 -152v-52h-498v78q0 392 454 392h806q434 0 434 -392v-922q0 -324 -344 -324h-236q-128 0 -216 68q-96 74 -96 198q0 118 90 192q102 84 222 74l48 -4v692zM1130 160q140 0 140 114q0 116 -140 116q-138 0 -138 -116
q0 -114 138 -114z" />
    <glyph glyph-name="afii59721;" unicode="&#xe29;" horiz-adv-x="2540" 
d="M1598 868v770h532v-712q172 68 246 172l134 -152q-136 -144 -380 -200v-394q0 -352 -454 -352h-860q-456 0 -456 352v758l-48 -4q-120 -10 -222 74q-90 74 -90 192q0 124 96 198q88 68 216 68h236q344 0 344 -324v-896q0 -152 194 -152h318q194 0 194 152v298
q-554 58 -554 354q0 98 68 165t166 67q96 0 165 -68t69 -164q0 -64 -30 -118q-10 -18 -32 -42q84 -34 148 -42zM1192 1064q0 -86 86 -86t86 86t-86 86t-86 -86zM230 1364q0 -114 138 -114q140 0 140 114t-140 114q-138 0 -138 -114z" />
    <glyph glyph-name="afii59728;" unicode="&#xe31;" 
d="M-916 2174q64 -16 130 -16q188 0 312 102q134 110 134 294v32q-2 14 -2 20h372q0 -640 -750 -640q-252 0 -426 68q-246 96 -246 308q0 110 79 187t189 77t188 -77t78 -187q0 -104 -58 -168zM-1232 2330q0 -102 108 -102q102 0 102 102q0 108 -102 108q-108 0 -108 -108z
" />
    <glyph glyph-name="afii59734;" unicode="&#xe36;" 
d="M-312 2170q68 -86 68 -204q0 -26 -2 -40h-1762q0 320 304 438q192 74 578 74q142 0 274 -22q12 118 102 199t210 81q132 0 221 -90t89 -222q0 -120 -82 -214zM-680 2376q0 -140 140 -140q138 0 138 140q0 138 -138 138q-140 0 -140 -138zM-1474 2110h724q0 138 -376 138
q-348 0 -348 -138z" />
    <glyph glyph-name="f71d;" unicode="&#xf71d;" horiz-adv-x="1024" 
d="M1024 -303h-82q0 72 -12 102q-25 62 -103 62h-630q-115 0 -115 -164h-82v303h1024v-303z" />
    <glyph glyph-name="afii59745;" unicode="&#xe41;" horiz-adv-x="2080" 
d="M102 1638h532v-1098q136 0 240 -66q122 -76 122 -204q0 -136 -124 -212q-106 -66 -250 -66h-60q-246 0 -348 88q-112 94 -112 334v1224zM1064 1638h532v-1098q136 0 240 -66q120 -76 120 -204q0 -138 -122 -214q-104 -64 -250 -64h-62q-246 0 -348 88q-110 94 -110 334
v1224zM1450 270q0 -114 134 -114q136 0 136 114q0 50 -43 83t-93 33q-134 0 -134 -116zM488 270q0 -114 134 -114q136 0 136 114q0 50 -43 83t-93 33q-134 0 -134 -116z" />
    <glyph glyph-name="afii59744;" unicode="&#xe40;" horiz-adv-x="1120" 
d="M102 1638h532v-1098q136 0 240 -66q122 -76 122 -204q0 -136 -124 -212q-106 -66 -250 -66h-60q-246 0 -348 88q-112 94 -112 334v1224zM488 270q0 -114 134 -114q136 0 136 114q0 50 -43 83t-93 33q-134 0 -134 -116z" />
    <glyph glyph-name="afii59746;" unicode="&#xe42;" horiz-adv-x="1352" 
d="M860 2466v-1934h46q132 0 220 -66q98 -74 98 -200t-98 -200q-90 -66 -220 -66h-262q-144 0 -230 92t-86 236v1950h-512q0 528 528 528q86 0 204 -16q266 -36 320 -36q150 0 262 60v-208q-70 -54 -200 -54q-74 0 -296 42q-106 20 -154 20q-134 0 -194 -54q-32 -28 -52 -94
h626zM996 266q0 114 -140 114t-140 -114t140 -114t140 114z" />
    <glyph glyph-name="afii59748;" unicode="&#xe44;" horiz-adv-x="1352" 
d="M332 2524l-238 -164l-340 208v254l340 -196l230 180h540v-2274h46q132 0 220 -66q98 -74 98 -200t-98 -200q-90 -66 -220 -66h-262q-144 0 -230 92t-86 236v2196zM1000 266q0 114 -140 114t-140 -114t140 -114t140 114z" />
    <glyph glyph-name="afii59747;" unicode="&#xe43;" horiz-adv-x="1514" 
d="M398 2392q0 -114 -86 -182t-202 -68q-134 0 -220 83t-86 217q0 176 126 274q114 90 296 90h388q180 0 290 -86q120 -96 120 -270v-1918h46q132 0 220 -66q98 -74 98 -200t-98 -200q-90 -66 -220 -66h-264q-142 0 -228 93t-86 235v2166q0 130 -162 130q-30 0 -84 -10
q152 -66 152 -222zM1160 266q0 114 -140 114t-140 -114t140 -114t140 114zM0 2388q0 -94 110 -94q112 0 112 94t-112 94q-110 0 -110 -94z" />
    <glyph glyph-name="afii59749;" unicode="&#xe45;" horiz-adv-x="1778" 
d="M1532 -552h-532v1772q0 152 -194 152h-184q-192 0 -192 -152v-52h-470v78q0 392 454 392h684q434 0 434 -392v-1798z" />
    <glyph glyph-name="afii59751;" unicode="&#xe47;" 
d="M-856 2084q-8 24 -8 62q0 96 68 153t166 57q96 0 164 -58t68 -152q0 -98 -67 -159t-165 -61h-230q-94 0 -174 50q-60 38 -80 76l-188 -130h-460v232q0 236 136 332q114 82 364 82h610q130 0 230 90l118 -138q-124 -116 -326 -116h-538q-164 0 -164 -156v-160l262 182
q68 -186 214 -186zM-712 2142q0 -78 78 -78q76 0 76 78t-76 78q-78 0 -78 -78z" />
    <glyph glyph-name="afii59753;" unicode="&#xe49;" 
d="M-328 3376h332q0 -416 -316 -534q-182 -68 -464 -68q-152 0 -256 24v114q118 0 164 94q-88 0 -151 61t-63 149q0 90 66 151t156 61q106 0 166 -70t60 -176q0 -90 -48 -176q-14 -26 -48 -70q404 0 404 374v40q-2 16 -2 26zM-938 3220q0 -70 70 -70t70 70t-70 70t-70 -70z
" />
    <glyph glyph-name="afii59752;" unicode="&#xe48;" 
d="M-770 3290h524v-492h-524v492z" />
    <glyph glyph-name="afii59754;" unicode="&#xe4a;" 
d="M-226 3158v-98q0 -44 -22 -92q-8 -16 -22 -36q164 0 164 152v238h196v-226q0 -298 -320 -298h-352v102q24 16 32 22q18 18 18 44v130q0 74 -54 74q-30 0 -72 -38q-16 -14 -38 -40q-26 26 -42 38q-54 40 -94 40q-52 0 -52 -78q62 0 111 -41t49 -101q0 -156 -214 -156
q-250 0 -250 212v102q0 94 58 154t152 60h106q68 0 130 -40q22 -14 46 -42q24 26 42 40q60 42 134 42h102q192 0 192 -164zM-984 2950q0 -54 66 -54q62 0 62 54q0 52 -62 52q-66 0 -66 -52z" />
    <glyph glyph-name="afii59755;" unicode="&#xe4b;" 
d="M-978 3002v238h254v204h434v-204h254v-238h-254v-204h-434v204h-254z" />
    <glyph glyph-name="afii59757;" unicode="&#xe4d;" 
d="M-676 2564q154 0 258 -66q124 -78 124 -224t-124 -224q-104 -68 -258 -68q-152 0 -258 68q-122 80 -122 224t122 222q106 68 258 68zM-824 2274q0 -120 148 -120t148 120q0 118 -148 118t-148 -118z" />
    <glyph glyph-name="afii59756;" unicode="&#xe4c;" 
d="M-340 2740q-38 -154 -206 -154q-128 0 -200 98q-48 66 -48 154q0 118 94 184q82 58 204 58q20 0 60 -2t60 -2q112 0 150 94l316 -126q-56 -184 -222 -184q-46 0 -128 26t-120 26q46 -64 46 -118q0 -30 -6 -54zM-650 2808q0 -44 52 -74q26 -16 54 -16q70 0 70 68
q0 42 -54 78q-28 12 -52 12q-70 0 -70 -68z" />
    <glyph glyph-name="afii59758;" unicode="&#xe4e;" 
d="M-386 2670q-154 0 -202 -10q-106 -22 -106 -104q0 -20 2 -28q10 -36 108 -62l96 -24l22 -128q-6 -4 -42 -8q-264 -28 -368 -68q-56 -22 -70 -72t46 -84q50 -26 104 -26q40 0 72 16q56 28 146 78l42 24l82 -110q10 -18 -94 -84q-126 -80 -272 -80q-132 0 -240 46
q-140 62 -140 178q0 38 16 76q42 102 162 152q154 64 202 44q-40 22 -80 54q-88 68 -88 130q12 142 232 212q156 50 338 50q74 0 202 -18l114 -18l16 -176l-64 4q-188 36 -236 36z" />
    <glyph glyph-name="afii59759;" unicode="&#xe4f;" horiz-adv-x="1966" 
d="M922 -20q-350 0 -595 245t-245 595t245 594t595 244t595 -244t245 -594t-245 -595t-595 -245zM1598 820q0 278 -199 477t-477 199t-477 -199t-199 -477q0 -280 198 -478t478 -198t478 198t198 478zM922 336q-204 0 -344 140t-140 344q0 200 142 341t342 141
q202 0 342 -140t140 -342t-140 -343t-342 -141z" />
    <glyph glyph-name="afii59761;" unicode="&#xe51;" horiz-adv-x="2048" 
d="M724 0h-236q-406 0 -406 394v524q0 392 434 392h852q434 0 434 -392v-636q0 -126 -54 -200q-28 -38 -98 -82h-418q140 74 140 266v668q0 152 -192 152h-476q-192 0 -192 -152v-558q0 -164 132 -164q28 0 72 10q-48 60 -52 66q-42 68 -42 146q0 120 82 201t202 81
q118 0 202 -82t84 -200q0 -208 -128 -321t-340 -113zM798 434q0 -106 108 -106q106 0 106 106t-106 106q-108 0 -108 -106z" />
    <glyph glyph-name="afii59763;" unicode="&#xe53;" horiz-adv-x="2060" 
d="M700 1310q116 0 192 -68q24 -22 54 -70q32 46 56 68q78 70 174 70h270q170 0 269 -105t99 -275v-930h-430v898q0 180 -188 180q-100 0 -184 -102q-28 -34 -66 -104q-36 68 -64 102q-86 104 -190 104q-180 0 -180 -180v-324q16 6 28 8q36 8 66 8q118 0 200 -82t82 -200
q0 -150 -114 -234q-102 -74 -258 -74q-192 0 -310 106q-124 110 -124 300v524q0 170 99 275t269 105h250zM512 308q0 -104 102 -104t102 104q0 102 -102 102t-102 -102z" />
    <glyph glyph-name="afii59762;" unicode="&#xe52;" horiz-adv-x="2228" 
d="M1224 700q0 -116 -77 -189t-193 -73q-162 0 -248 138q-72 114 -72 288q0 454 374 454q194 0 290 -154q142 150 328 150q168 0 262 -100t94 -268v-552q0 -394 -434 -394h-1032q-434 0 -434 394v834q0 104 -40 186q-24 50 -82 118h446q54 -56 74 -100q32 -70 32 -186v-870
q0 -150 192 -150h656q192 0 192 150v594q0 94 -66 94q-60 0 -138 -88q-28 -32 -66 -88q-40 66 -64 96q-82 98 -158 98q-102 0 -102 -98v-34q110 10 188 -65t78 -185zM840 700q0 -114 114 -114q116 0 116 114q0 116 -116 116q-114 0 -114 -116z" />
    <glyph glyph-name="afii59764;" unicode="&#xe54;" horiz-adv-x="2088" 
d="M1336 910q130 0 220 -85t90 -215q0 -124 -84 -208q-94 -94 -210 -86l-58 4q56 -94 234 -94h316v-226h-426q-158 0 -288 106q-28 -32 -52 -52q-70 -54 -136 -54h-548q-184 0 -252 82q-60 72 -60 262v574q0 230 148 322q114 70 364 70h652q298 0 298 246h476
q0 -470 -586 -470h-730q-192 0 -192 -152v-566q0 -142 160 -142h208q36 0 80 30q12 8 36 30q-42 114 -42 222q0 168 108 285t274 117zM1228 606q0 -118 120 -118q118 0 118 118t-118 118q-120 0 -120 -118z" />
    <glyph glyph-name="afii59766;" unicode="&#xe56;" horiz-adv-x="2110" 
d="M1376 1310q244 0 352 -70q136 -88 136 -314v-540q0 -226 -136 -314q-110 -72 -352 -72h-904q-378 0 -378 308v208q0 180 164 276q136 80 328 80q140 0 234 -62q110 -70 110 -204q0 -118 -86 -188t-206 -70q-50 0 -110 16q0 -138 148 -138h578q180 0 180 160v540
q0 160 -180 160h-472q-256 0 -290 -156h-452v360q0 158 -90 242h460q82 -78 82 -218v-114q36 36 64 54q88 56 198 56h622zM508 606q0 -110 114 -110q116 0 116 110t-116 110q-114 0 -114 -110z" />
    <glyph glyph-name="afii59765;" unicode="&#xe55;" horiz-adv-x="2088" 
d="M1344 1318q200 32 200 238h476q0 -470 -586 -470h-730q-192 0 -192 -152v-566q0 -142 160 -142h208q36 0 80 30q12 8 36 30q-42 114 -42 222q0 168 108 285t274 117q130 0 220 -85t90 -215q0 -124 -84 -208q-94 -94 -210 -86l-58 4q56 -94 234 -94h316v-226h-426
q-158 0 -288 106q-28 -32 -52 -52q-70 -54 -136 -54h-548q-184 0 -252 82q-60 72 -60 262v574q0 230 148 322q114 70 364 70h66q-30 60 -30 124q0 144 118 218q100 64 252 64t250 -64q118 -74 118 -218q0 -64 -24 -116zM864 1434q0 -116 136 -116q134 0 134 116
q0 114 -134 114q-136 0 -136 -114zM1228 606q0 -118 120 -118q118 0 118 118t-118 118q-120 0 -120 -118z" />
    <glyph glyph-name="afii59770;" unicode="&#xe5a;" horiz-adv-x="2520" 
d="M312 1642q122 0 206 -77t84 -197q0 -164 -140 -238q24 -6 64 -6q248 0 364 188q76 124 76 326h516v-1638h-532v1064q-176 -122 -426 -122q-198 0 -350 96q-174 110 -174 298q0 128 92 217t220 89zM212 1368q0 -106 108 -106q106 0 106 106t-106 106q-108 0 -108 -106z
M1712 1638h532v-1638h-532v1638z" />
    <glyph glyph-name="afii59769;" unicode="&#xe59;" horiz-adv-x="2130" 
d="M512 364q0 -130 118 -130q-60 80 -60 176q0 118 82 200t200 82q126 0 206 -87t80 -215q0 -206 -172 -312q-144 -86 -364 -86q-268 0 -380 76q-140 96 -140 346v504q0 230 148 322q114 70 364 70h574q124 0 160 -90l72 -176l70 176q36 90 152 90h54q168 0 168 218h352
v-180q0 -266 -266 -266h-148q-88 0 -102 -78l-86 -500q66 -180 244 -424q56 -78 62 -80h-462l-118 242q-40 84 -108 246q-78 188 -138 360l-78 230h-292q-192 0 -192 -152v-562zM746 410q0 -106 106 -106t106 106t-106 106t-106 -106z" />
    <glyph glyph-name="afii59771;" unicode="&#xe5b;" horiz-adv-x="3150" 
d="M2212 282q-52 0 -106 76q-82 116 -82 150q-46 -68 -74 -104q-82 -108 -120 -122t-112 110q-48 80 -72 124q-52 -76 -86 -118q-90 -116 -110 -112q-30 14 -66 60q-24 32 -82 130l-92 -170q-56 -96 -116 -150q-136 -124 -332 -124q-194 0 -352 112q-166 120 -198 306
q-16 92 -16 180q0 514 476 598q34 6 70 6q96 0 204 -46q38 -16 86 -46l-8 -224q-102 94 -282 94h-36q-12 0 -42 -4q-144 -18 -237 -131t-93 -259q0 -164 122 -252q106 -80 278 -80q192 0 324 162l196 354q6 0 93 -180t115 -180q20 0 91 182t93 182q32 2 78 -114l102 -258
l114 244q56 120 80 120q22 0 100 -203t136 -193q12 2 156 228q68 106 152 120q6 2 14 2h8q46 0 156 -78q54 -38 94 -38q50 0 98 32q20 14 56 62l86 -182q-54 -102 -168 -142q-30 -10 -48 -10q-44 0 -132 55t-136 55q-14 0 -28 -2q-62 -10 -163 -116t-189 -106z" />
    <glyph glyph-name="f718;" unicode="&#xf718;" 
d="M-824 -1364q-78 -6 -142 58q-58 58 -58 142q0 100 74 160q70 54 172 54h230q302 0 302 -258v-438h-532v286zM-852 -1168q0 -86 98 -86t98 86t-98 86t-98 -86z" />
    <glyph glyph-name="f705;" unicode="&#xf705;" 
d="M-1474 2376h532v-492h-532v492z" />
    <glyph glyph-name="afii59696;" unicode="&#xe10;" horiz-adv-x="1986" 
d="M1740 992v-598q0 -194 -44 -270q-72 -124 -286 -124h-750l-140 500q-68 -78 -180 -78q-102 0 -172 70t-70 172q0 118 84 184q76 62 198 62q302 0 382 -266l114 -378h164q168 0 168 140v446q0 110 -130 110h-1078q0 696 652 696q192 0 332 -32q308 -70 372 -70
q134 0 348 116l74 -250q-126 -80 -302 -80q-108 0 -315 52t-305 52q-276 0 -316 -234h926q112 0 188 -54q86 -60 86 -166zM1098 -360q0 188 246 188h134q262 0 262 -192v-352q0 -140 -172 -140h-426q-60 0 -124 50q-20 16 -52 52q-30 -34 -50 -50q-64 -52 -122 -52h-114
l-58 78q-34 -26 -54 -38q-66 -40 -114 -40h-270q-192 0 -192 148v204q0 70 64 112q56 36 128 36h250q66 0 138 -48q24 -16 58 -50q28 34 40 54q44 72 54 142h218q-18 -134 -106 -258q-30 -42 -86 -98q4 -18 8 -26q14 -28 36 -28q38 0 106 98q56 82 74 136q126 -230 194 -230
h28q32 0 32 42v90q-130 44 -130 172zM406 -676q28 0 65 20t37 46q0 52 -102 52q-78 0 -78 -60q0 -58 78 -58zM262 660q0 -86 86 -86t86 86t-86 86t-86 -86zM1266 -360q0 -70 90 -70t90 70t-90 70t-90 -70z" />
    <glyph glyph-name="afii59682;" unicode="&#xe02;" horiz-adv-x="2088" 
d="M672 1286q0 -130 -102 -219t-234 -89q-134 0 -232 86q-104 90 -104 222q0 172 142 268q124 84 304 84h266q218 0 314 -84q104 -90 104 -300q0 -216 -282 -400q-132 -86 -132 -220v-216q0 -152 194 -152h208q192 0 192 152v1220h534v-1244q0 -394 -456 -394h-750
q-454 0 -454 394v258q0 162 154 222l286 102q154 80 154 266q0 208 -160 208q54 -80 54 -164zM208 1286q0 -130 132 -130t132 130q0 132 -132 132t-132 -132z" />
    <glyph glyph-name="afii59683;" unicode="&#xe03;" horiz-adv-x="2048" 
d="M1802 1638v-1244q0 -394 -454 -394h-750q-454 0 -454 394v216q0 172 156 248l292 128q158 90 158 268q0 196 -98 196q-38 0 -68 -24q-16 -14 -40 -46q-60 100 -184 100q-58 0 -86 -42q112 0 189 -66t77 -176q0 -102 -69 -172t-171 -70q-134 0 -220 100q-80 94 -80 232
q0 144 97 252t239 108q72 0 122 -20q24 -10 90 -50q102 74 246 74q312 0 312 -396q0 -170 -110 -270l-208 -142q-112 -80 -112 -208v-204q0 -152 192 -152h210q192 0 192 152v1208h532zM212 1192q0 -86 88 -86q86 0 86 86t-86 86q-88 0 -88 -86z" />
    <glyph glyph-name="afii59687;" unicode="&#xe07;" horiz-adv-x="1728" 
d="M950 1110l-48 -4q-120 -10 -222 74q-90 74 -90 192q0 124 96 198q88 68 216 68h236q344 0 344 -324v-920q0 -214 -60 -296q-70 -98 -272 -98h-712q-32 6 -50 14q-52 24 -68 76l-360 1142l278 406l344 -1372h200q168 0 168 140v704zM820 1364q0 -114 138 -114
q140 0 140 114t-140 114q-138 0 -138 -114z" />
    <glyph glyph-name="bullet;" unicode="&#x2022;" horiz-adv-x="1270" 
d="M594 308q-216 0 -364 148t-148 364q0 214 149 363t363 149t363 -149t149 -363t-149 -363t-363 -149z" />
    <glyph glyph-name="afii59702;" unicode="&#xe16;" horiz-adv-x="2228" 
d="M1450 0v1220q0 152 -234 152h-422q-200 0 -200 -102v-50h204v-118q-176 0 -176 -164v-406h46q132 0 222 -66q98 -72 98 -200q0 -126 -100 -200q-90 -66 -220 -66h-262q-144 0 -230 92t-86 236v520q0 146 140 242h-190v156q0 392 456 392h1060q426 0 426 -392v-1246h-532z
M758 266q0 114 -140 114q-138 0 -138 -114t138 -114q140 0 140 114z" />
    <glyph glyph-name="afii59743;" unicode="&#xe3f;" horiz-adv-x="2064" 
d="M1184 1904q346 0 488 -86q176 -106 176 -400q0 -204 -64 -300q-74 -110 -268 -140v-20q368 0 368 -426q0 -330 -176 -442q-140 -90 -512 -90h-98v-246h-270v246h-742v1904h742v246h270v-246h86zM644 1142h400q138 0 180 26q62 36 62 160q0 98 -36 128t-140 30h-466v-344z
M644 418h420q134 0 186 30q74 40 74 162q0 118 -66 154q-46 26 -180 26h-434v-372z" />
    <glyph glyph-name="afii59694;" unicode="&#xe0e;" horiz-adv-x="2360" 
d="M1532 -680q50 0 50 46v1854q0 152 -194 152h-414q-200 0 -200 -102v-50h286v-118q-70 0 -119 -47t-49 -117v-610q0 -144 -86 -236t-228 -92h-258q-132 0 -222 66q-98 72 -98 200q0 126 100 200q90 66 220 66h40v316q0 146 140 242h-278v156q0 392 454 392h1012
q426 0 426 -392v-1954q0 -160 -202 -160h-594l-254 122q-30 -44 -56 -66q-82 -68 -202 -68h-462q-204 0 -204 250q0 240 204 240h422q72 0 168 -42q32 -14 82 -44l200 268h254l-282 -382l168 -90h176zM380 152q140 0 140 114t-140 114q-138 0 -138 -114t138 -114zM512 -638
q0 -66 82 -66h168q26 0 64 21t38 45q0 18 -41 41t-65 23h-164q-82 0 -82 -64z" />
    <glyph glyph-name="afii59689;" unicode="&#xe09;" horiz-adv-x="2416" 
d="M566 0q-180 0 -180 180v372q-20 -8 -66 -8q-130 0 -220 68q-100 74 -100 200q0 124 100 200q90 66 220 66h282q142 0 229 -93t87 -235v-520q60 24 340 276q136 122 258 174v540q0 152 -192 152h-500q-194 0 -194 -152v-52h-498v78q0 392 454 392h1008q454 0 454 -392
v-480q324 0 324 -386q0 -156 -74 -262q-84 -118 -234 -118h-368q-180 0 -180 180v274l-412 -330q-156 -124 -244 -124h-294zM2048 578v-414q164 0 164 226q0 188 -164 188zM238 802q0 -118 142 -118q144 0 144 118q0 120 -144 120q-142 0 -142 -120z" />
    <glyph glyph-name="f711;" unicode="&#xf711;" 
d="M-1168 2564q146 0 240 -70q104 -80 104 -220t-104 -220q-96 -72 -240 -72q-142 0 -238 74q-106 80 -106 218t106 218q94 72 238 72zM-1298 2274q0 -120 130 -120q132 0 132 120q0 118 -132 118q-130 0 -130 -118z" />
    <glyph glyph-name="afii59700;" unicode="&#xe14;" horiz-adv-x="2270" 
d="M266 0q-86 0 -138 68q-46 60 -46 150v1028q0 392 454 392h1032q456 0 456 -392v-1246h-534v1220q0 152 -192 152h-492q-192 0 -192 -152v-1036q56 20 218 210q116 136 196 244q-100 0 -180 92q-62 70 -62 176q0 110 78 188t188 78q120 0 196 -83t76 -205q0 -84 -98 -240
q-64 -100 -202 -280q-282 -364 -372 -364h-386zM958 902q0 -96 94 -96t94 96q0 94 -94 94t-94 -94z" />
    <glyph glyph-name="afii59688;" unicode="&#xe08;" horiz-adv-x="1986" 
d="M410 570q-112 0 -189 77t-77 189q0 124 80 197t206 73q326 0 382 -266l122 -574h106q168 0 168 140v814q0 152 -192 152h-324q-192 0 -192 -152v-52h-500v78q0 392 454 392h832q454 0 454 -392v-852q0 -204 -44 -278q-68 -116 -286 -116h-714l-126 618q-70 -48 -160 -48z
M304 836q0 -112 110 -112t110 112q0 110 -110 110t-110 -110z" />
    <glyph glyph-name="afii59718;" unicode="&#xe26;" horiz-adv-x="2334" 
d="M2088 -552h-532v1772q0 152 -192 152h-390q-200 0 -200 -102v-50h250v-118q-132 0 -132 -164v-610q0 -144 -86 -236t-228 -92h-258q-132 0 -222 66q-98 72 -98 200q0 126 100 200q90 66 220 66h40v316q0 146 140 242h-278v156q0 392 454 392h986q426 0 426 -392v-1798z
M380 152q140 0 140 114t-140 114q-138 0 -138 -114t138 -114z" />
    <glyph glyph-name="afii59736;" unicode="&#xe38;" 
d="M-824 -536q-78 -6 -142 58q-58 58 -58 142q0 100 74 160q70 54 172 54h230q302 0 302 -258v-440h-532v288zM-852 -340q0 -86 98 -86t98 86t-98 86t-98 -86z" />
    <glyph glyph-name="afii59697;" unicode="&#xe11;" horiz-adv-x="2326" 
d="M1486 1638h354q240 0 240 -266v-1372h-532v1302q0 78 -36 78q-66 0 -316 -610q-86 -208 -282 -770h-562v790q0 88 102 150l192 118q104 90 104 236q0 156 -98 156q-38 0 -68 -24q-16 -14 -40 -46q-60 100 -184 100q-58 0 -86 -42q112 0 189 -66t77 -176q0 -102 -69 -172
t-171 -70q-134 0 -220 100q-80 94 -80 232q0 144 97 252t239 108q72 0 122 -20q24 -10 90 -50q102 74 258 74q296 0 296 -340q0 -156 -109 -290t-109 -164v-380l110 286q68 176 128 316q74 174 118 266q138 294 246 294zM212 1192q0 -86 88 -86q86 0 86 86t-86 86
q-88 0 -88 -86z" />
    <glyph glyph-name="afii59685;" unicode="&#xe05;" horiz-adv-x="2270" 
d="M614 348q64 196 210 578q112 246 310 246q110 0 188 -78t78 -188q0 -114 -76 -191t-190 -77q-126 0 -192 86q-44 -98 -111 -306t-113 -306q-52 -112 -112 -112h-340q-86 0 -138 68q-46 60 -46 150v1028q0 392 426 392h294q92 0 182 -56q32 -20 72 -58q34 36 64 56
q86 58 178 58h296q430 0 430 -392v-1246h-534v1220q0 140 -196 140h-52q-66 0 -128 -56q-20 -18 -50 -58q-40 38 -64 56q-78 58 -140 58h-54q-192 0 -192 -140v-872zM1028 902q0 -104 102 -104t102 104q0 102 -102 102t-102 -102z" />
    <glyph glyph-name="afii59701;" unicode="&#xe15;" horiz-adv-x="2270" 
d="M2024 0h-534v1220q0 140 -196 140h-52q-66 0 -128 -56q-20 -18 -50 -58q-40 38 -64 56q-78 58 -140 58h-54q-192 0 -192 -140v-1036q56 20 218 210q116 136 196 244q-100 0 -180 92q-62 70 -62 176q0 110 78 188t188 78q120 0 196 -83t76 -205q0 -84 -98 -240
q-64 -100 -202 -280q-282 -364 -372 -364h-386q-86 0 -138 68q-46 60 -46 150v1028q0 392 426 392h294q92 0 182 -56q32 -20 72 -58q34 36 64 56q86 58 178 58h296q430 0 430 -392v-1246zM958 902q0 -96 94 -96t94 96q0 94 -94 94t-94 -94z" />
    <glyph glyph-name="afii59690;" unicode="&#xe0a;" horiz-adv-x="2088" 
d="M1844 1004v-610q0 -394 -456 -394h-750q-454 0 -454 394v258q0 162 154 222l286 102q154 80 154 266q0 208 -160 208q54 -80 54 -164q0 -130 -102 -219t-234 -89q-134 0 -232 86q-104 90 -104 222q0 172 142 268q124 84 304 84h266q218 0 314 -84q104 -90 104 -300
q0 -216 -282 -400q-132 -86 -132 -220v-204q0 -152 194 -152h208q192 0 192 152v652q0 160 -146 160v110q146 0 146 160v324h534v-242q0 -130 -50 -198q-30 -42 -126 -98q92 -52 124 -96q52 -70 52 -198zM208 1286q0 -130 132 -130t132 130q0 132 -132 132t-132 -132z" />
    <glyph glyph-name="afii59706;" unicode="&#xe1a;" horiz-adv-x="2376" 
d="M892 418q0 -152 194 -152h318q194 0 194 152v1220h532v-1286q0 -352 -454 -352h-860q-456 0 -456 352v758l-48 -4q-120 -10 -222 74q-90 74 -90 192q0 124 96 198q88 68 216 68h236q344 0 344 -324v-896zM230 1364q0 -114 138 -114q140 0 140 114t-140 114
q-138 0 -138 -114z" />
    <glyph glyph-name="afii59750;" unicode="&#xe46;" horiz-adv-x="1770" 
d="M434 1340q94 0 162 -68t68 -162q0 -124 -104 -190q-90 -56 -220 -56q-148 0 -246 114q-94 108 -94 258q0 182 121 302t305 120q186 0 312 -130q118 130 336 130q230 0 334 -86q116 -92 116 -314v-1484h-532v1516q0 128 -100 128q-90 0 -154 -116q-82 132 -206 132
q-122 0 -134 -98zM278 1114q0 -114 116 -114q114 0 114 114t-114 114q-116 0 -116 -114z" />
    <glyph glyph-name="afii59768;" unicode="&#xe58;" horiz-adv-x="2040" 
d="M1150 472q0 126 90 208t218 82q140 0 238 -101t98 -243q0 -194 -123 -306t-319 -112h-152q-184 0 -356 184l-176 -184h-274q-184 0 -252 82q-60 72 -60 262v574q0 230 148 322q114 70 364 70h570q336 0 336 214h470q0 -438 -578 -438h-688q-192 0 -192 -152v-566
q0 -86 2 -92q10 -42 68 -42l254 254q64 -82 110 -124q136 -126 254 -126q36 0 62 8q-112 84 -112 226zM1332 462q0 -110 110 -110t110 110q0 112 -110 112t-110 -112z" />
    <glyph glyph-name="afii59711;" unicode="&#xe1f;" horiz-adv-x="2572" 
d="M1404 1638l390 -1204v1758h532v-2012q0 -180 -180 -180h-294q-156 0 -180 70l-328 978l-328 -974q-24 -74 -180 -74h-296q-180 0 -180 180v930l-48 -4q-120 -10 -222 74q-90 74 -90 192q0 124 96 198q88 68 216 68h236q344 0 344 -324v-880l390 1204h122zM230 1364
q0 -114 138 -114q140 0 140 114t-140 114q-138 0 -138 -114z" />
    <glyph glyph-name="afii59681" unicode="&#xe01;" horiz-adv-x="2228" 
d="M1528 1638q454 0 454 -392v-1246h-532v1220q0 152 -192 152h-464q-200 0 -200 -102v-50h192v-118q-164 0 -164 -164v-938h-532v848q0 146 140 242h-190v156q0 392 456 392h1032z" />
    <glyph glyph-name="afii59692;" unicode="&#xe0c;" horiz-adv-x="3322" 
d="M3076 180q0 -180 -180 -180h-270q-76 0 -228 164l-198 232q-134 152 -246 190v-406q0 -180 -180 -180h-308q-348 0 -348 422q0 418 304 418v380q0 152 -194 152h-434q-200 0 -200 -102v-50h164v-118q-136 0 -136 -164v-406h26q132 0 220 -66q98 -74 98 -200t-98 -200
q-90 -66 -220 -66h-242q-144 0 -230 92t-86 236v520q0 146 140 242h-190v156q0 392 456 392h1032q426 0 426 -392v-440q126 -22 270 -166l320 -340v1338h532v-1458zM1306 414q0 -210 116 -210v444q-116 0 -116 -234zM746 266q0 114 -140 114t-140 -114t140 -114t140 114z
" />
    <glyph glyph-name="f703;" unicode="&#xf703;" 
d="M-926 2130q68 -88 68 -206q0 -26 -2 -40h-1762q0 322 304 438q190 74 578 74q158 0 274 -20q12 118 101 198t209 80q130 0 221 -91t91 -221q0 -118 -82 -212zM-1294 2334q0 -138 138 -138q140 0 140 138q0 140 -140 140q-138 0 -138 -140zM-2088 2068h724q0 140 -376 140
q-348 0 -348 -140z" />
    <glyph glyph-name="afii59691;" unicode="&#xe0b;" horiz-adv-x="2048" 
d="M540 1196q0 -102 -69 -172t-171 -70q-134 0 -220 100q-80 94 -80 232q0 144 97 252t239 108q72 0 122 -20q24 -10 90 -50q102 74 246 74q312 0 312 -396q0 -170 -110 -270l-208 -142q-112 -80 -112 -208v-204q0 -152 192 -152h210q192 0 192 152v652q0 160 -132 160v110
q132 0 132 160v324h532v-242q0 -130 -50 -198q-30 -42 -126 -98q92 -52 124 -96q52 -70 52 -198v-610q0 -394 -454 -394h-750q-454 0 -454 394v216q0 172 156 248l292 128q158 90 158 268q0 196 -98 196q-38 0 -68 -24q-16 -14 -40 -46q-60 100 -184 100q-58 0 -86 -42
q112 0 189 -66t77 -176zM212 1192q0 -86 88 -86q86 0 86 86t-86 86q-88 0 -88 -86z" />
    <glyph glyph-name="afii59707;" unicode="&#xe1b;" horiz-adv-x="2376" 
d="M892 418q0 -152 194 -152h318q194 0 194 152v1774h532v-1840q0 -352 -454 -352h-860q-456 0 -456 352v758l-48 -4q-120 -10 -222 74q-90 74 -90 192q0 124 96 198q88 68 216 68h236q344 0 344 -324v-896zM230 1364q0 -114 138 -114q140 0 140 114t-140 114
q-138 0 -138 -114z" />
    <glyph glyph-name="ellipsis;" unicode="&#x2026;" horiz-adv-x="2171" 
d="M1954 127q0 -64 -47.5 -112t-112.5 -48q-160 0 -160 160q0 164 160 164q68 0 114 -48t46 -116zM1241 127q0 -64 -47.5 -112t-112.5 -48q-159 0 -159 160q0 164 159 164q68 0 114 -48t46 -116zM528 127q0 -64 -47.5 -112t-111.5 -48q-160 0 -160 160q0 164 160 164
q67 0 113 -48t46 -116z" />
    <glyph glyph-name="u0e00" unicode="&#xe00;" horiz-adv-x="410" 
 />
    <glyph glyph-name="afii59712;" unicode="&#xe20;" horiz-adv-x="2334" 
d="M2088 0h-532v1220q0 152 -192 152h-390q-200 0 -200 -102v-50h250v-118q-132 0 -132 -164v-610q0 -144 -86 -236t-228 -92h-258q-132 0 -222 66q-98 72 -98 200q0 126 100 200q90 66 220 66h40v316q0 146 140 242h-278v156q0 392 454 392h986q426 0 426 -392v-1246z
M380 152q140 0 140 114t-140 114q-138 0 -138 -114t138 -114z" />
    <glyph glyph-name="afii59715;" unicode="&#xe23;" horiz-adv-x="1868" 
d="M1090 774q0 118 -140 118h-910q0 766 690 766q96 0 358 -68q124 -32 212 -32q154 0 318 80l36 -274q-164 -70 -310 -70q-100 0 -210 38q-248 86 -332 86q-108 0 -174 -77t-66 -185h770q290 0 290 -268v-564q0 -324 -344 -324h-238q-128 0 -216 68q-94 74 -94 198
q0 116 90 192q100 84 220 74l50 -4v246zM1098 160q138 0 138 114q0 116 -138 116q-140 0 -140 -116q0 -114 140 -114z" />
    <glyph glyph-name="afii59733;" unicode="&#xe35;" 
d="M-770 2412v284h524v-770h-1762q0 326 300 448q198 80 582 80q154 0 270 -20q42 -8 86 -22zM-1474 2110h724q0 90 -152 136q-106 32 -224 32q-348 0 -348 -168z" />
    <glyph glyph-name="f70b;" unicode="&#xf70b;" 
d="M-574 2568h370q0 -462 -348 -594q-196 -74 -516 -74q-178 0 -288 26v126q134 0 180 102q-96 0 -165 69t-69 165q0 100 73 169t173 69q114 0 182 -79t68 -195q0 -100 -52 -198q-18 -36 -54 -78q450 0 450 416v46q-4 20 -4 30zM-1254 2392q0 -78 78 -78t78 78t-78 78
t-78 -78z" />
    <glyph glyph-name="f714;" unicode="&#xf714;" 
d="M-984 3334h332q0 -416 -314 -532q-184 -68 -470 -68q-158 0 -252 22v116q118 0 164 94q-86 0 -149 61t-63 147q0 90 65 152t155 62q106 0 166 -70t60 -176q0 -88 -46 -176q-16 -30 -48 -70q402 0 402 370v42q-2 16 -2 26zM-1594 3178q0 -70 70 -70t70 70t-70 70t-70 -70z
" />
    <glyph glyph-name="endash;" unicode="&#x2013;" horiz-adv-x="1847" 
d="M1847 676h-1847v119h1847v-119z" />
    <glyph glyph-name="emdash;" unicode="&#x2014;" horiz-adv-x="3277" 
d="M3277 676h-3277v119h3277v-119z" />
    <glyph glyph-name="quotedblleft;" unicode="&#x201c;" horiz-adv-x="1446" 
d="M0 1126v546q0 122 140 160q102 28 392 28v-180q-228 0 -228 -78q0 -30 36 -30h192v-446h-532zM668 1126v546q0 122 140 160q102 28 392 28v-180q-230 0 -230 -78q0 -30 38 -30h192v-446h-532z" />
    <glyph glyph-name="quotedblright;" unicode="&#x201d;" horiz-adv-x="1446" 
d="M1200 1860v-546q0 -122 -140 -160q-102 -28 -392 -28v180q230 0 230 78q0 30 -38 30h-192v446h532zM532 1860v-546q0 -122 -140 -160q-102 -28 -392 -28v180q230 0 230 78q0 30 -38 30h-192v446h532z" />
    <glyph glyph-name="quoteleft;" unicode="&#x2018;" horiz-adv-x="778" 
d="M0 1126v546q0 122 140 160q102 28 392 28v-180q-228 0 -228 -78q0 -30 36 -30h192v-446h-532z" />
    <glyph glyph-name="quoteright;" unicode="&#x2019;" horiz-adv-x="778" 
d="M532 1860v-546q0 -122 -140 -160q-102 -28 -392 -28v180q230 0 230 78q0 30 -38 30h-192v446h532z" />
    <glyph glyph-name="afii59767;" unicode="&#xe57;" horiz-adv-x="2540" 
d="M1654 376q0 -112 -68 -150h118q156 0 156 146v730q0 202 106 282h410q-46 -56 -62 -96q-24 -62 -24 -132v-762q0 -394 -398 -394h-798v212q130 0 130 136v544q0 190 -134 190q-74 0 -156 -92q-24 -28 -66 -92q-40 62 -66 92q-80 92 -154 92q-136 0 -136 -190v-330l32 4
q114 0 195 -81t81 -195q0 -132 -98 -210q-90 -72 -226 -72q-414 0 -414 434v492q0 170 95 273t265 103h140q200 0 286 -146q40 64 86 94q78 52 202 52h138q172 0 266 -102t94 -274v-558zM446 290q0 -106 106 -106q108 0 108 106q0 108 -108 108q-106 0 -106 -108z" />
    <glyph glyph-name="f717;" unicode="&#xf717;" 
d="M-872 2740q-40 -154 -206 -154q-128 0 -202 98q-48 64 -48 154q0 118 94 184q82 58 206 58q20 0 59 -2t59 -2q114 0 152 94l316 -126q-58 -184 -222 -184q-56 0 -162 34q-56 18 -88 18q48 -62 48 -118q0 -30 -6 -54zM-1176 2834q-6 -12 -6 -26q0 -44 54 -76
q24 -14 50 -14q48 0 66 42q4 10 4 26q0 46 -52 78q-28 12 -52 12q-48 0 -64 -42z" />
    <glyph glyph-name="afii59684;" unicode="&#xe04;" horiz-adv-x="2294" 
d="M942 724q-44 -98 -111 -306t-113 -306q-52 -112 -112 -112h-340q-86 0 -138 68q-46 60 -46 150v1028q0 392 454 392h1058q454 0 454 -392v-1246h-532v1220q0 152 -192 152h-518q-192 0 -192 -152v-872q64 196 210 578q112 246 310 246q110 0 188 -78t78 -188
q0 -114 -76 -191t-190 -77q-126 0 -192 86zM1028 902q0 -104 102 -104t102 104q0 102 -102 102t-102 -102z" />
    <glyph glyph-name="f70a;" unicode="&#xf70a;" 
d="M-778 2416h532v-490h-532v490z" />
    <glyph glyph-name="f713;" unicode="&#xf713;" 
d="M-1384 3248h524v-492h-524v492z" />
    <glyph glyph-name="f706;" unicode="&#xf706;" 
d="M-1110 2528h368q0 -466 -348 -594q-202 -74 -522 -74q-180 0 -280 24v128q136 0 180 102q-96 0 -165 69t-69 165q0 102 72 169t174 67q116 0 183 -78t67 -196q0 -98 -52 -196q-18 -36 -54 -78q446 0 446 492zM-1790 2352q0 -78 78 -78t78 78q0 76 -78 76t-78 -76z" />
    <glyph glyph-name="afii59703;" unicode="&#xe17;" horiz-adv-x="2368" 
d="M860 0h-320q-180 0 -180 180v930l-48 -4q-120 -10 -222 74q-90 74 -90 192q0 124 96 198q88 68 216 68h236q344 0 344 -324v-842q20 6 132 316q72 198 122 314q108 248 162 338q118 198 220 198h352q242 0 242 -266v-1372h-532v1310q0 76 -38 70q-80 -14 -328 -622
q-36 -88 -122 -342q-70 -206 -114 -292q-64 -124 -128 -124zM230 1364q0 -114 138 -114q140 0 140 114t-140 114q-138 0 -138 -114z" />
    <glyph glyph-name="f702;" unicode="&#xf702;" 
d="M-1384 2372v282h524v-770h-1762q0 326 300 448q196 80 582 80q184 0 306 -26q22 -4 50 -14zM-2088 2068h724q0 90 -152 136q-106 32 -224 32q-348 0 -348 -168z" />
    <glyph glyph-name="f704;" unicode="&#xf704;" 
d="M-1196 2654h336v-770h-1762q0 326 300 448q196 80 582 80h60v242h336v-286q72 -16 148 -46v332zM-2088 2068h724q0 90 -152 136q-106 32 -224 32q-348 0 -348 -168z" />
    <glyph glyph-name="f708;" unicode="&#xf708;" 
d="M-1852 2088v246h254v206h452v-206h254v-246h-254v-204h-452v204h-254z" />
    <glyph glyph-name="afii59714;" unicode="&#xe22;" horiz-adv-x="2180" 
d="M614 1036q0 -80 126 -94h186v-172q-142 0 -190 -10q-122 -26 -122 -158v-180q0 -156 164 -156h458q164 0 164 156v1216h534v-1212q0 -426 -410 -426h-1032q-410 0 -410 426v140q0 134 94 220q30 28 94 58q-64 24 -94 46q-94 68 -94 174v250q0 154 94 239t250 85h258
q128 0 216 -68q96 -74 96 -198q0 -118 -90 -192q-98 -82 -222 -74l-70 4v-74zM648 1478q-140 0 -140 -114t140 -114q138 0 138 114t-138 114z" />
    <glyph glyph-name="afii59722;" unicode="&#xe2a;" horiz-adv-x="2212" 
d="M1966 1228v-1228h-528v586q0 184 -192 184h-500q-132 0 -132 -110v-132l50 4q120 10 222 -72q88 -74 88 -194q0 -122 -96 -198q-88 -68 -214 -68h-238q-344 0 -344 324v418q0 298 332 298h848q78 0 134 -30q18 -10 42 -32v242q0 152 -192 152h-472q-192 0 -192 -152v-52
h-500v78q0 392 454 392h774q126 0 126 170q0 18 -2 28h536q0 -116 -102 -192q-30 -22 -102 -54q68 -36 100 -70q100 -106 100 -292zM746 274q0 116 -140 116t-140 -116q0 -114 140 -114t140 114z" />
    <glyph glyph-name="afii59713;" unicode="&#xe21;" horiz-adv-x="2416" 
d="M966 806q122 -22 304 -202l368 -366v1400h532v-1458q0 -180 -180 -180h-270q-112 0 -248 138l-254 272q-150 160 -252 192v-360q0 -112 -73 -177t-185 -65h-228q-440 0 -440 434q0 184 106 307t288 123v246l-48 -4q-122 -10 -222 74q-90 72 -90 192q0 124 96 198
q88 68 216 68h236q344 0 344 -324v-508zM304 1364q0 -114 138 -114q140 0 140 114t-140 114q-138 0 -138 -114zM238 426q0 -146 68 -194q40 -28 128 -28v468q-196 0 -196 -246z" />
    <glyph glyph-name="afii59723;" unicode="&#xe2b;" horiz-adv-x="2322" 
d="M1930 1118q48 -34 72 -66q74 -98 74 -240v-812h-532v902q0 20 -14 20q-10 0 -22 -12q-144 -144 -324 -476q-134 -248 -162 -290q-94 -144 -162 -144h-320q-180 0 -180 180v930l-48 -4q-120 -10 -222 74q-90 74 -90 192q0 124 96 198q88 68 216 68h236q344 0 344 -324
v-978q0 -22 10 -22q18 0 32 30q150 308 304 510q108 144 240 260q-64 30 -94 56q-94 80 -94 194q0 148 138 222q112 60 272 60t272 -60q138 -74 138 -222q0 -104 -72 -174q-32 -30 -108 -72zM230 1364q0 -114 138 -114q140 0 140 114t-140 114q-138 0 -138 -114zM1540 1356
q0 -120 160 -120t160 120q0 118 -160 118t-160 -118z" />
    <glyph glyph-name="afii59720;" unicode="&#xe28;" horiz-adv-x="2294" 
d="M1356 1638q154 0 154 158q0 26 -2 40h552q2 -10 2 -32q0 -108 -84 -182q-26 -24 -86 -54q54 -38 78 -68q78 -100 78 -254v-1246h-532v1220q0 152 -192 152h-518q-192 0 -192 -152v-872q64 196 210 578q112 246 310 246q110 0 188 -78t78 -188q0 -114 -76 -191t-190 -77
q-126 0 -192 86q-44 -98 -111 -306t-113 -306q-52 -112 -112 -112h-340q-86 0 -138 68q-46 60 -46 150v1028q0 392 454 392h820zM1028 902q0 -104 102 -104t102 104q0 102 -102 102t-102 -102z" />
    <glyph glyph-name="afii59725;" unicode="&#xe2d;" horiz-adv-x="2220" 
d="M1974 394q0 -394 -454 -394h-984q-454 0 -454 394v314q0 324 344 324h238q128 0 216 -68q94 -74 94 -198q0 -116 -88 -190q-102 -86 -222 -76l-50 4v-86q0 -152 192 -152h444q192 0 192 152v802q0 152 -192 152h-444q-192 0 -192 -152v-52h-532v78q0 392 454 392h988
q450 0 450 -410v-834zM606 872q-140 0 -140 -114t140 -114t140 114t-140 114z" />
    <glyph glyph-name="afii59726;" unicode="&#xe2e;" horiz-adv-x="2170" 
d="M1926 394q0 -394 -456 -394h-934q-454 0 -454 394v314q0 324 344 324h196q128 0 216 -68q96 -74 96 -198t-96 -198q-88 -68 -216 -68l-8 4v-86q0 -152 192 -152h394q192 0 192 152v754q-40 -22 -62 -32q-74 -34 -118 -34h-860q-112 0 -188 60q-82 66 -82 174v64
q0 108 82 174q76 60 188 60h954q74 0 74 160v46h550q0 -138 -40 -244q-14 -36 -42 -80q24 -34 38 -64q40 -90 40 -186v-876zM578 872q-140 0 -140 -114t140 -114q138 0 138 114t-138 114zM566 1372q0 -66 82 -66h588q28 0 74 30t46 56q0 46 -106 46h-602q-82 0 -82 -66z" />
    <glyph glyph-name="afii59727;" unicode="&#xe2f;" horiz-adv-x="1728" 
d="M312 1642q122 0 206 -77t84 -197q0 -164 -140 -238q24 -6 64 -6q248 0 364 188q76 124 76 326h516v-1638h-532v1064q-176 -122 -426 -122q-198 0 -350 96q-174 110 -174 298q0 128 92 217t220 89zM212 1368q0 -106 108 -106q106 0 106 106t-106 106q-108 0 -108 -106z
" />
    <glyph glyph-name="afii59724;" unicode="&#xe2c;" horiz-adv-x="2614" 
d="M1790 2252q10 22 16 42q16 54 16 102h550q0 -138 -40 -212q-14 -26 -42 -46q26 -32 38 -54q40 -74 40 -158v-1746q0 -180 -180 -180h-296q-156 0 -180 70l-348 978l-348 -974q-26 -74 -180 -74h-296q-180 0 -180 180v930l-48 -4q-120 -10 -222 74q-90 74 -90 192
q0 124 96 198q88 68 216 68h236q344 0 344 -324v-880l410 1204h124l410 -1204v1368q-28 -16 -46 -24q-54 -24 -94 -24h-590q-72 0 -126 38q-62 42 -62 112v198q0 68 62 112q56 38 126 38h684zM230 1364q0 -114 138 -114q140 0 140 114t-140 114q-138 0 -138 -114zM1318 1998
q0 -64 82 -64h280q26 0 72 31t46 55q0 44 -106 44h-292q-82 0 -82 -66z" />
    <glyph glyph-name="afii59731;" unicode="&#xe33;" horiz-adv-x="1778" 
d="M1532 0h-532v1220q0 152 -194 152h-184q-192 0 -192 -152v-52h-470v78q0 392 454 392h684q434 0 434 -392v-1246zM-512 2564q154 0 258 -66q122 -78 122 -224t-122 -224q-104 -68 -258 -68q-152 0 -258 68q-122 80 -122 224t122 222q106 68 258 68zM-660 2274
q0 -120 148 -120t148 120q0 118 -148 118t-148 -118z" />
    <glyph glyph-name="afii59732;" unicode="&#xe34;" 
d="M-2008 2008q0 326 300 448q198 80 582 80q314 0 552 -92q330 -126 330 -392q0 -28 -2 -44h-1762zM-1474 2192h724q0 90 -152 136q-106 32 -224 32q-348 0 -348 -168z" />
    <glyph glyph-name="afii59730;" unicode="&#xe32;" horiz-adv-x="1778" 
d="M1532 0h-532v1220q0 152 -194 152h-184q-192 0 -192 -152v-52h-470v78q0 392 454 392h684q434 0 434 -392v-1246z" />
    <glyph glyph-name="afii59738;" unicode="&#xe3a;" 
d="M-778 -204h532v-472h-532v472z" />
    <glyph glyph-name="f71c;" unicode="&#xf71c;" horiz-adv-x="905" 
 />
    <glyph glyph-name="afii59737;" unicode="&#xe39;" 
d="M-1048 -860q-366 0 -366 196v132l-44 -4q-84 0 -142 58t-58 142q0 214 244 214h144q304 0 304 -258v-214q0 -78 126 -78q128 0 128 78v472h466v-542q0 -196 -364 -196h-438zM-1504 -340q0 -86 100 -86q98 0 98 86t-98 86q-100 0 -100 -86z" />
    <glyph glyph-name="f707;" unicode="&#xf707;" 
d="M-1232 2326v-118q0 -58 -26 -114q-10 -20 -28 -42q200 0 200 184v296h246v-276q0 -372 -396 -372h-440v128q66 26 66 82v162q0 92 -70 92q-34 0 -88 -52q-14 -14 -46 -52q-30 34 -52 52q-62 52 -112 52q-70 0 -70 -100q80 0 138 -51t58 -129q0 -94 -86 -148
q-72 -44 -172 -44q-128 0 -216 66q-94 74 -94 200v128q0 114 72 188t186 74h130q88 0 162 -52q26 -18 56 -52q28 34 54 52q74 52 162 52h132q234 0 234 -206zM-2166 2072q0 -64 78 -64q76 0 76 64q0 66 -76 66q-78 0 -78 -66z" />
    <glyph glyph-name="f710;" unicode="&#xf710;" 
d="M-1430 2174q64 -16 130 -16q188 0 312 102q134 110 134 294v32q-2 14 -2 20h372q0 -640 -748 -640q-250 0 -426 68q-246 96 -246 308q0 110 78 187t188 77t188 -77t78 -187q0 -104 -58 -168zM-1744 2330q0 -102 106 -102q102 0 102 102q0 108 -102 108q-106 0 -106 -108z
" />
    <glyph glyph-name="afii59695;" unicode="&#xe0f;" horiz-adv-x="2360" 
d="M1532 -668q50 0 50 46v1842q0 152 -194 152h-414q-200 0 -200 -102v-50h286v-118q-70 0 -119 -47t-49 -117v-610q0 -144 -86 -236t-228 -92h-258q-132 0 -222 66q-98 72 -98 200q0 126 100 200q90 66 220 66h40v316q0 146 140 242h-278v156q0 392 454 392h1012
q426 0 426 -392v-1954q0 -160 -202 -160h-498l-120 122l-94 -122h-172l-156 110q-44 -44 -64 -60q-78 -62 -132 -62h-464q-204 0 -204 250q0 240 204 240h422q70 0 150 -38q28 -14 64 -38l192 248h246l-302 -392l130 -90l180 234l180 -202h58zM380 152q140 0 140 114
t-140 114q-138 0 -138 -114t138 -114zM380 -638q0 -66 82 -66h148q24 0 63 22t39 44q0 24 -40 44t-66 20h-144q-82 0 -82 -64z" />
    <glyph glyph-name="afii59704;" unicode="&#xe18;" horiz-adv-x="2130" 
d="M1884 364q0 -364 -454 -364h-844q-454 0 -454 364v410h532v-388q0 -152 172 -152h324q192 0 192 152v396q0 90 -110 90h-1202q0 342 186 558q196 228 532 228q196 0 348 -38q352 -88 406 -88q172 0 344 90l70 -308q-100 -54 -232 -54q-104 0 -248 38l-292 78
q-146 38 -256 38q-266 0 -316 -300h1028q114 0 188 -54q86 -60 86 -168v-528z" />
    <glyph glyph-name="afii59729;" unicode="&#xe30;" horiz-adv-x="1474" 
d="M442 1266q64 -16 112 -16q246 0 246 280q0 44 -10 108h434q0 -324 -194 -444q-152 -96 -502 -96q-528 0 -528 298q0 102 70 172t172 70t172 -70t70 -172q0 -88 -42 -130zM442 168q64 -16 112 -16q246 0 246 280q0 44 -10 108h434q0 -324 -194 -444q-152 -96 -502 -96
q-528 0 -528 300q0 102 70 171t172 69t172 -69t70 -171q0 -90 -42 -132zM148 290q0 -94 94 -94t94 94q0 96 -94 96t-94 -96zM148 1388q0 -94 94 -94t94 94t-94 94t-94 -94z" />
    <glyph glyph-name="afii59735;" unicode="&#xe37;" 
d="M-582 2696h336v-770h-1762q0 326 300 448q198 80 582 80h62v242h334v-288q86 -16 148 -44v332zM-1474 2110h724q0 90 -152 136q-106 32 -224 32q-348 0 -348 -168z" />
    <glyph glyph-name="afii59760;" unicode="&#xe50;" horiz-adv-x="2072" 
d="M1826 394q0 -394 -434 -394h-876q-434 0 -434 394v524q0 392 434 392h876q434 0 434 -392v-524zM1396 934q0 152 -192 152h-500q-192 0 -192 -152v-558q0 -150 192 -150h500q192 0 192 150v558z" />
    <glyph glyph-name="f719;" unicode="&#xf719;" 
d="M-1048 -1688q-366 0 -366 198v130l-44 -4q-84 0 -142 58t-58 142q0 214 244 214h144q304 0 304 -258v-214q0 -78 126 -78q128 0 128 78v472h466v-540q0 -198 -364 -198h-438zM-1504 -1168q0 -86 100 -86q98 0 98 86t-98 86q-100 0 -100 -86z" />
    <glyph glyph-name="f71a;" unicode="&#xf71a;" 
d="M-824 -984h534v-470h-534v470z" />
  </font>
</defs>
</svg>
